&title=シェイク!!!
&artist=海ジャム feat.雨衣
&first=0.02
&des=小洛克 feat.大耳帽兜
&lv_5=13+
&inote_5=(150){1},
{8}1b,,,,
3x,6x,4x,5x,
{16}2h[4:1],,3,,
4h[4:1],,3,,
2,,2,8h[16:3],
,,4,,
{16}6h[4:1],,5,,
4h[4:1],,5,,
6,,6,5,
6,,7/4,,
{16}2h[4:1],,3,,
4h[4:1],,3,,
2,,2,8h[16:3],
,,4,,
{16}6h[4:1],,5,,
4h[4:1],,5,,
6v5-3[16:3],,7,,
8,,,,
{16}7h[4:1],,6,,
5h[4:1],,6,,
7,,7,1h[16:3],
,,5,,
{16}2h[4:1],,1,,
8h[4:1],,1,,
2,,2,1,
2,,3/8,,
{16}7-5[8:1],,7,,
4-2[8:1],,4,,
5-7[8:1],,5,,
1,,1,,
{16}A2,A3,A4,,
A7,A6,A5,,
E3,E4,E5,,
E7,E6,E5,,
{8}3bxqq6[2:1]/4hx[8:1],,4h[8:1],,
4h[8:1],,4h[8:1],,
{16}5/4,,6,5,
6,,7,,
B3,,B7,,
B3,,B7,,
{8}6xpp3[2:1]/5hx[8:1],,5h[8:1],,
5h[8:1],,5h[8:1],,
{16}4/5,,3,4,
3,,2,,
B7,,B3,,
B7,,B3,,
{8}2xpp7[2:1]/1hx[8:1],,1h[8:1],,
1h[8:1],,1h[8:1],,
{16}8/1,,7,8,
7,,6,,
B2,,B6,,
B2,,B6,,
{8}3>7x[8:2],3,6,5,
4q5[8:2],,4/7,,
{8}6<2x[8:2],6x,3x,4x,
5xp4[8:2],,C,,
{8}8h[1:1],,,,
,,,,
{8}4qq5[2:1],,A6,,
A7,,A8,,
{8}2h[1:1],,,,
,,,,
{8}4pp3[2:1],,A2,,
A1,,A8,,
{8}6h[1:1],,,,
,,,,
{8}5v7[16:3],,2,,
1v3[16:3],,7,,
{8}5h[4:1],,3,3,
4,2,7,5,
{8}4-1[8:1]/5-8[8:1],,,,
2-5[8:1]/6-1[8:1],,2x/6x,,
{8}5-7[8:1]/4,6,
8-4[8:1],1,
5/8,,
{8}4/5-1[8:1],6,
2-4[8:1],3,
2/8,,
{8}5/6,B7/E8/B3/E3,B7/E8/B3/E3,,
{8}4-2[8:1]/5,3,
1-5[8:1],8,
4/1,,
{8}5/4-8[8:1],3,
7-5[8:1],6,
7/1,,
{8}4/3,B2/E2/B6/E7,B2/E2/B6/E7,,
{8}3h[4:1],2,4,5,
6h[4:1],7,5,4,
{8}2b-4[8:1],1,5-2[8:1],6,7,,
{8}1b-4[8:1],8,5-2[8:1],6,7,,
{8}8b-4[8:1],7,5-2[8:1],6,7,,
{8}7,2,4-8[8:1]/5-1[8:1],3/6,4/5,,
{8}6-8[8:1]/5,7,
1-5[8:1],2,
6/1,,
{8}3/4-8[8:1],5,
1-3[8:1],2,
1/7,,
{8}5/6,B7/E8/B3/E3,B7/E8/B3/E3,,
{8}3-1[8:1]/4,2,
8-4[8:1],7,
3/8,,
{8}6/5-1[8:1],4,
8-6[8:1],7,
8/2,,
{8}4/3,B2/E2/B6/E7,B2/E2/B6/E7,,
{8}3h[4:1],2,5,4,
6h[4:1],7,4,5,
{8}2b-4[8:1],1,5-7[8:1],6,3,,
{8}1b,8,
{8}2/4,3,5/7,6,
1b/4,3,5/8,6,
{16}2,5,3,4,
1,6,2,5,
8-4[8:1],,,,
8/4w8[8:1],,,,
{16},,,,
,,,,
B2h[12:2]/B3h[12:2]/E3h[12:2],,,,
B7h[12:2]/B6h[12:2]/E7h[12:2],,,,
{16}2,3,4,7,
6p4[16:5],5,,,
6/4,,,,
3,,2,,
{16}5,6,7,4,
3qq5[16:5],2,,,
5/3,,,,
8,,6,,
{16}2,3,4,7,
6p4[16:5],5,,,
6/4,,,,
3,,2,,
{16}5,6,7,8,
4,3,2,1,
5-8[8:1],,8-5[8:1],,
,,,,
{16}2,3,4,2,
3>8[8:1],4,,,
3/5,,,7h[16:3],
,,5,,
{16}7,6,5,7,
6-1[8:1],5,,,
6/2,,,4h[16:3],
,,1,,
{16}4,3,2,4,
3-7[8:1],2,,,
3/5,,,8h[16:3],
,,6,,
{16}5,4/6,3/7,2/8,
1xs5[8:3],2x/8x,3x/7x,4x/6x,
,,,,
,,,,
{8}4h[4:7]/6h[4:3],,,,
,,,,
{8}8h[4:3],,,,
,,,,
{8}6h[4:7]/2h[4:3],,,,
,,,,
{8}4h[4:3],,,,
,,,,
{8}7<5p4[2:1],,,,
2,,,,
{8}3<4q5<6[2:1],,,,
7,,,,
{8}5p4>2[2:1],,,,
1,,,,
{8}4h[4:1]/5h[4:1],,,,
2-5[8:1]/6-1[8:1],,,,
{32}E7,E6,A5,,
,,,,
B4,C,B8,,
,,,,
E7,E6,A5,,
,,,,
B5,C,B1,,
,,,,
{32}E3,E4,A4,,
,,,,
B5,C,B1,,
,,,,
{8}4/3,B2/E2/B6/E7,B2/E2/B6/E7,,
{8}5-2[8:1]/6,4,
8-4[8:1],7,
8/1,,
{8}4-7[8:1]/3,5,
1-5[8:1],2,
1/8,,
{8}5/6,B7/E8/B3/E3,B7/E8/B3/E3,,
{8}3-5[8:1],2,5,6,
7-1[8:1],6,1,2,
{8}3b-5[8:1],2,6-8[8:1]*-2[8:1],7,6,,
{8}3b-5[8:1],1,6-8[8:1]*-2[8:1],7,6,,
{8}3bV51[16:3],8,6-8[8:1]*-2[8:1],7,6,,
{8}7,2,4-8[8:1]/5-1[8:1],3/6,4/5,,
{8}4-7[8:1]/3,6,
1-5[8:1],3,
1/8,,
{8}5-2[8:1]/6,3,
8-4[8:1],6,
8/1,,
{8}4/3,B2/E2/B6/E7,B2/E2/B6/E7,,
{8}5-2[8:1]/6,3,
8-4[8:1],6,
8/1,,
{8}4-7[8:1]/3,6,
1-5[8:1],3,
1/8,,
{8}5/6,B7/E8/B3/E3,B7/E8/B3/E3,,
{8}3-8[8:1],1,5,7,
7-4[8:1],5,1,3,
{8}2b-4[8:1],1,5-7[8:1],6,3,,
{8}1b,8,
{8}2/4,3,5/7,6,
1b/4,3,5/8,6,
{16}2,8,3,5,
1,7,3,5,
1w5[8:1],,,,
,,,,
{16}6h[4:1],,7,,
5h[4:1],,8,,
6,,6,8,
,,4/5,,
{16}3h[4:1],,2,,
4h[4:1],,1,,
3,,3,5,
4,,3/5,,
{16}6h[4:1],,7,,
5h[4:1],,8,,
6,,6,8,
,,4/5,,
{16}3h[4:1],,2,,
4h[4:1],,1,,
3-8[8:1],,2,4,
3,,,,
{16}6h[4:1],,8,,
4h[4:1],,1,,
6,,6,8,
,,1/8,,
{16}2h[4:1],,4,,
8h[4:1],,5,,
3,,3,4,
2,,1/8,,
{16}6h[4:1],,7,,
4h[4:1],,1,,
6,,6,8,
,,4/5,,
{16}3h[4:1],,2,,
5h[4:1],,8,,
3,,3,4,
2-4[8:1],,8,,
{16}2b-6[8:1],,5,,
2b-4[8:1],,7,,
2b-6[8:1],,5,,
2b,,8,,
{16}7b-3[8:1],,4,,
7b-5[8:1],,2,,
7b-3[8:1],,4,,
7b,,2,,
{16}1b-5[8:1],,4,,
1b-3[8:1],,6,,
1b-5[8:1],,4,,
1b,,7,,
{16}8b-4[8:1],,5,,
8b-6[8:1],,3,,
8b-4[8:1],,5,,
8b,,2,,
{16}1b>4[8:1],,3,,
1b<6[8:1],,7,,
1b>4[8:1],,3,,
1b,,7,,
{16}8b<5[8:1],,6,,
8b>3[8:1],,2,,
8b<5[8:1],,6,,
8b,,2,,
{16}3b,,2/4,,
6b,,5/7,,
2b,,1/3,,
7b,,8/6,,
{16}1b,2x,3x,,
8b,7x,6x,,
2b,3x,4x,,
7b,6x,5x,,
{16},,,,
,,,,
,,,,
,,,,
{1}E5,
