&title=Victory Sense
&artist=KAH
&first=0
&des=MYOU
&lv_5=13+
&inote_5=(155)
{1},,
{4}5x/6xh[4:5],C,,C,
,C,{16}5x/6x,56,,47,,18,,,
{4}4x/3xh[4:3],C,,C,
{16}3x/4x,34,,25,,47,,18,,36,,4,5,2,7,4,
{8}5b-1[8:1],,,4b-8[8:1],,,,3b-7[8:1]/7x,
,,,2bz6[8:1]/6x,,,,,
{1}1b<2[2:1]/Cf/B4/B5,
{16}64,,,73,73,,8,,7-4[8:1]/1-4[8:1],,,,7b/1b,,,,
{16}E8,,,E7,,,E6,,,E5,,,3xh[8:9],,,,
6x,5x,6x,5x,6x,5x,6x,5x,6x,5x,6x,5x,6x,5x,6x,5x,
{16}E2,,,E3,,,E4,,,E5,,,6xh[8:8],,,,
3x,4x,3x,4x,3x,4x,3x,,3x,4x,3x,4x,3x,,,,
{16}1x/8x,,,B8,,,E7,,,B5,,,3xh[16:17],,,,
6x,5x,6x,,7x,,6x,,5x,,5x,6x,,8x,7x,6x,
{16}3,5,3,5,4,6,4,6,3,5,2,6,4,7,2,5,
{1}1b-5[4:1]*-5[4:1],
{8}5-8[8:1]/7,6,45,3,2/1-5[8:1],8,17,6,
45,2,34,7,{16}8x-4[8:1],5x,8x,5x,8b,,,,
{8}4-1[8:1]/2,3,54,6,7/8-4[8:1],1,82,3,
64,8,3/7V58[4:1],1,7/8-4[8:1],1,2b,,
{16}2x,4,3,4,2,5,4,5,2,6,5,6,1b,,,,
7x,5,6,5,7,4,5,4,7,3,4,3,8b,,,,
{16}2x,7,3,6,1b,8b,1b,8b,{32}2x,3,4,,8x,7,6,,1x,2,3,,7x,6,5,,
{16}2x,7,3,6,1x,8x,1x,8x,{12}2xh[8:1]/7xh[8:1],,5xh[8:1]/6xh[8:1],,2x-6[16:1]/4x,,
{24}2b<3[2:1]*<3[2:1]/6b,Cf,,,,,{4},,,
{4}3h[8:1]/B7,{4}2h[8:1]/B6,{4}1w5[8:1]/B5,1b,
{16}3x/8xh[4:1],,,,5,8,5,,46,,,3,4b,,25,,
6x/1xh[4:1],,,,4,1,4,,53,,,6,5b,,74,,
{16}2x/8xh[4:1],,,,6,8,6,,46,,,3,4b,,25,,
1x,8,2,7,3,6,2,7,4,5,3,6,Cf/B2/B3/B4/B5/B6/B7/E5,,,,
{16}2x/8xh[4:1],,,,6,8,6,,57,,,4,5b,,35,,
7x/1xh[4:1],,,,3,1,3,,42,,,5,4b,,64,,
{8}2x>6[8:1]/8x,28,C,,7x-1[8:1]/8x-4[8:1],78,C,,
5x/8x,7,14,2,5/8w4[8:1],7,8b,,
{16}47,,6,,35,,2h[4:1],,4x,5x,6x,7x,1x/8x,,27,,
36,,4,,57,,6,,2x-5[8:1],4x,,4x,2x,,6,,
{16}57,,8,,35,,2,,1x/7xh[4:1],2x,3x,4x,5x,6x,7x,8x,
1xV37[16:3]/5x,,,7,7V15[16:3],,6,,5xw1[8:1],,5x,,,,,,
{16}2b,1,4,5b,2,1,4b,5,2-6[8:1],1b,4,5,2b,,,,
7b,8,5,4b,7,8,5b,4,7-3[8:1],8b,5,4,7b<8[2:1],,,,
{8}Cf,,,,4x,4x,3x,2x,
{16}1x/8x,,3,4,2,,6,5,7,,18,,27,,,,
{4}4v1[8:1]/5,6,1>4[8:1]/7,6,
4v1[8:1]/5,6,1>4[8:1]/7,6,
{8}4>1[8:1]/5,,8,8<5[8:1],,4,4-8[8:1],,
5<8[8:1],,1,1>4[8:1],,5,5-1[8:1],,
{8}3,3,4,4,5,5,6,6,
57,57,46,46,35,35,24,24,
{16}3,5,3,5,4,6,4,6,3,5,2,6,4,7,2,6,3,5,1,7,4,6,2,8,E4,,B7/B8/E1/E7,,B7/B8/E1/E7,,,,
{16}4x/5x,,,4,,,4,,6,,,6,,,6,,
3,,,3,,,3,,7,,,7,,,7,,
{16}1,,,1,,,1,,3,,,3,,,3,,
5,,,5,,,5,,7,,,7,,,7,,
{16}46,,,3,,,3,,45,,,6,,,6,,
35,,,2,,,2,,36,,,7,,,7,,
{16}35,,,2,,,1,,64,,,7,,,8,,
46,,,2,,,1,,35,,,7,,,8,,
{1}Ch[4:11],
{1},
{1},
{16}18,18,,24,,45,,57,,18,,36,,45,45,,
{24}3x,4x,3x,{16}4x,2,5,3,6,4,7,3,6,2,5,3,7,4,
{24}6x,5x,6x,{16}5x,7,4,6,3,5,2,6,3,7,4,6,2,5,
{24}3x,4x,3x,{16}4x,2,5,3,8,4,{24}6x,5x,6x,{16}5x,7,4,6,1,5,
{24}3x,4x,3x,{16}4x,2,5,1,7,3,{12}8h[96:1],5h[96:1],6h[96:1],1h[96:1],3h[96:1],2h[96:1],
{96}8b<8[2:1]*>8[2:1],B8,Cf,B4,,,,,,,,,,,,,,,,,,,,,{4},,,
{2}Ch[4:1]/6x<3[4:1],5x-1[8:1],
{16}2h[8:1]/8,,4,3,5,4,6,5,7h[8:1],,8,7,5,6,3,4,
2,,37,,1h[8:1]/6,,4,2,6h[8:1],,8,6,2,7,3,8-5[16:1],
{6},5x-1[16:1],1x-4[16:1],4x-8[16:1],8xw4[16:1],,
,2xh[6:1]/6x,4xh[6:1],6xh[6:1],8xh[6:1],C,
{16}7h[8:1]/1,,5,6,4,5,3,4,2h[8:1],,1,2,4,3,6,5,
7,,62,,8h[8:1]/3,,6,8,4h[8:1],,1,4,7,2,5,1-4[16:1],
{6},4x-8[16:1],8x-5[16:1],5x-1[16:1],1xV35[12:1],8x-4[16:1],
{8}8b,,2b/6b,,4bz8[8:1]/8b-5[8:1],4b/8b,,,
{16}1,1,3,2,5,4,7,6,8,8,5,7,3,5,1,3,
{24}1,2,3,47,,,8,,,8,7,6,1/5h[8:1],,,{16}8,6,2,7,3,1>4[16:1],
{6},4x-8[16:1],8x<5[16:1],5x-1[16:1],1xw5[16:1],,
,2xh[6:1]/6x,4xh[6:1],6xh[6:1],8xh[6:1],C,
{16}8,8,6,7,4,5,2,3,1,1,4,2,6,4,8,6,
7,7,5,5,4,4,2,2,8h[8:1],,2,1,4,5,8,7,
{32}2,3,4,5,6,7,8,1,2,3,4,5,6,7,8,1,{16}2xh[8:1]/6xh[8:1],,,4xh[8:1]/8xh[8:1],,,5x/1x,,
{64}1b/5b,E2/E6,B2/B6,B3/B7,B4/B8,E5/E1,,,{16},,,,,,B6,,,C,,,B3,,
{8}4-8[8:1]/2,3,54,6,7/8V64[8:1],1,82,3,
64,8,35,1,{16}8x-4[8:1],8x,8x,8x,8b,,,,
{8}5-1[8:1]/7,6,45,3,2/1V35[8:1],8,17,6,
{16}35,,1,,28,28,,37,,1h[8:1]/5,,4,2,6,4,8,
{4}5b-1[8:1],5x/3x,4b-8[8:1]/8x,4x/2x,
3b-7[8:1]/7x,3x/1x,2b-6[8:1]/6x,2x/8x,
{1}1b<2[2:1]/Cf/B4/B5,
{16}64,,73,73,,18,18,,,46,,24,,7v4[16:1]/1v4[16:1],,,
{16}7b/1b>8[4:9],,,Ch[16:37],,,,,,,,,,,,,
{1},,
