&title=Flyburg and Endroll
&artist=アリスシャッハと魔法の楽団
&first=0.588
&des=Kurage
&lv_5=13+
&inote_5=(180)
{8}
2h[8:3],,,4,1,,,,6h[4:1],,5,7,5,,,,4h[4:2],,,,5,,,,2/8h[8:3],,,{16}5,7,{8}3,4,2,6,
5bqq3[8:3]/3b,,,4,4,,1,,4p6[4:2]/6,,1,,7,,,,{1}4b<8[4:2]/5b>1[4:2],2z6[4:2]/7s3[4:2],
{8}5bpp8[4:3],,,{16}1,2,{8}3,,,,
{8}4,4,6,6,{16}3,7,3,7,2,6,3p7[16:7],7p3[16:6],
{4}2b,,,5h[4:1],{8}1,,3,3V14[4:2]*pp4[4:2],,,,,
{4},,,1h[4:1],7<3[4:2]*>3[4:2],,,,
{4}4-1[8:3],,8,8-5[8:3],,,,4q7[4:3]/3qq8[4:3],{1},{4}6<3[8:3],2,{8}4-1[8:1],4,5,,
{8}
7b/3b,,7,5,7,,7/8>3[8:1],,5,,5,3,6,6,5,,
26,,2,4,2,,2/1-5[8:1],,4,,4,5,3,3,7,5,
48,,8,2,8V64[4:1],,4V28[4:1],,8,,5,5,7,3,6,1,
2b-6[8:1]/8,,6,5b-1[8:1],,4,3bqq5[4:3],,,5,5,5,6,6,7,7,
{8}2-7[8:1],2,6-3[8:1],6,{4}1z5[4:1],5qq4[8:3]*pp6[8:3],
{8}
,,,,5,5,4,6h[4:1],,8h[4:1],,2>6[4:1],,,1-5[8:1],,
8b,,46,4b/6b,,3V14[8:3]*V16[8:3],4,3b,,,,,1>4[8:1]/5<8[8:1],,5qq4[8:3],,
1b,,,7,7h[4:1],,5,6-4[8:1]/4,,2-6[8:1],,5p4[8:3],,,1,,
{8}1b>8[8:5],,,7,7h[4:2],,,,1,2,3/4-1[8:1],5,4,,6,{16}2,8,
{8}1b>8[8:5],,,7,7h[4:2],,,,1b,24,7b,65,{16}2,3,4,5,6,7,8,1,
{8}
2b<3[8:3]/6b,,4,,1,8,7p3[8:1]/4-8[8:1],,
74,,1,1-5[8:1]/7,,5,4<8[4:1],,
8>4[4:1],,3,5<3[8:4],,8,1-4[8:1],,
,,6/5-1[8:1],,8,8,7>3[4:1]/2,,
3b<7[4:1],,7,8-5[8:1],,1,1-4[8:1],,
6-2[8:1],,2-6[8:1],,1<2[8:5],,5z1[8:3],,
,,,,8,1,7-5[8:1]/2-4[8:1],,
72,,8-5[8:1]/1-4[8:1],,81,,{16}7,3,6,2,
{8}
7b>6[8:3],,5,,8,1,2q6[8:1]/5-1[8:1],,
25,,8,8-4[8:1]/2,,4,5>1[4:1],,
1<5[4:1],,6,4>6[8:4],,1,8-5[8:1],,
,,3/4-8[8:1],,1,1,2<6[4:1]/7,,
6b>2[4:1],,2,1-4[8:1],,8,8-5[8:1],,
3-7[8:1],,6b-2[8:1],,1bw5[8:1],,1b,,
8b<1[8:5]*s4[8:3],,,,,,,,
4>5[8:5],4,,5,5,,4-8[8:1],,
1b<7[8:1],2,3,2b-6[8:1],3,4,3b<5[8:1],4,
6V85[4:5],7bV14[8:11],,,,,,,
{1},
{8}
36,,,,2h[8:3],,,4,3,4,,,6h[4:2]/5,,,,
8,,,,7h[8:3],,,5h[8:1],6h[8:1],5h[8:1],7,{16}4,5,{8}4-2[8:1],,6-4[8:1],,
{8}1h[8:3],,,{16}7,6,{8}5h[8:3],,,{16}8,7,{8}6h[8:3],,,{16}1,8,{8}7h[8:3],,,{16}1,2,
{8}3h[8:3],,,{16}5,4,{8}5h[8:1],3h[8:1],6h[8:1],5h[8:1],{1}7p6[4:2],
{8}
45,,,,7h[8:3],,,5,6<4[4:3],5,,,3,,,,
1,,,,2h[8:3],,,4,3p5[4:2],4,,,6,,,,
7<3[4:2],,,,1,,,2,4-7[4:1],2,,,4-1[4:1],,,,
{1}8w4[4:5],,
{8}
5,,,,4,5,6,3,,4,,5,,,6,,5,,6,6,,4,,6,,,,,5,,4,,
3,,,,,,4,4,,6,,6,,,3,,
{4}5<8[4:2]/4,4,4,4,{8}4,6,4,5,4,,36,,
{4}4>1[4:2]/5,5,6,6,7-3[8:1],8,2-6[8:1],1,
{8}7b,,5,5,6,6,3,24,1b,78,6,45,{16}3,2,1,8,7,6,5,4,
{4}3bqq8[4:2]/7b,,5,7,{4}6bpp1[4:2]/2b,{8}4,4,,2,,,
{8}3b>8[8:1]/7b,,5,6>3[8:1],,1,1-5[8:1],1,
{8}4b>5[4:2],,,,,,4h[4:5],,
{4}5h[4:2],,,,5h[4:4],4h[4:1],,,4h[4:2],,5,4,
{4}3b/6b,4-1[8:1]/5-8[8:1],45,{16}2,6,3,7,
{8}
2b<3[8:3],,4,,1,8,7p3[8:1]/4-8[8:1],,
74,,1,1-5[8:1]/7,,5,4V68[4:1],,
8V24[4:1],,3,5V71[8:2],,8,2-4[8:1]*-6[8:1],,
,,7/5-1[8:1],,8,8,7V13[4:1]/2,,
3bV57[4:1],,7,8-4[8:1],,1,1-5[8:1],,
4-1[8:1]*>1[8:1],,4b-7[8:1]*<7[8:1],,4bw8[8:1],,4b,,
{8}
2b>8[8:3],3,5,7,1b>7[8:3],2,4,6,8b>6[8:3],1,3,5,{16}7b,8,1,2,{4}3/4-8[8:1],
{8}1b-6[8:1],2,3,2b-6[8:1],3,4,3b-6[8:1],4,
6V84[4:5],7bV15[8:11],,,,,,,
{1},{8}2h[8:3],,,4h[8:3],,,6h[8:3],,,5pp7[8:10]*qq3[8:10],,,,,,,
{1},
{1}4,
