&title=おどロボ BREAKCORE - namigroove remix
&artist=【なみぐる × 海茶】
&first=-0.1
&des=Locolin~
&des_5=Locolin~
&lv_5=14+
&inote_5=(200){8},4,3,5/2,{16}3,4,{8}3,3/6,{16}4,5,
4,5,{8}4,3/6,4/7,{16}5,6,{8}5,3/6,{16}4,5,
4,5,{8}4,7b/2b,3/6,{16}4,5,{8}4,3/6,2/7,
1/8,{16}2,8,{8}2,2b/8b,{4}2bv5[8:1]/8bv5[8:1],{8}2b/8b,A5f,
,1,2,8/3,{16}2,1,{8}2,2/7,{16}1,8,
1,8,{8}1,2/7,1/6,{16}8,7,{8}8,2/7,{16}1,8,
1,8,{8}1,2b/7b,{16}3,4,2,6,5,7,5,3,4,1,
6,5,8,2,3,1,7,6,8,3,7,2,{8}6,1bw5[8:1],
{32},,,,1b,B1,C,B5,,,,,{8}3/7h[4:1],,2,,7/5,
6,4/2,3,5/7,6,4/2,3,1-6[8:1]/3-6[8:1],
,3b/1b,,5h[8:1]/7h[8:1],,4h[8:1]/6h[8:1],,5/8,
7,1/4,2,5/8,6,4/1,3,2-5[8:1]/8-5[8:1],
,2b/8b,,3h[8:1]/6h[8:1],,2h[8:1]/7h[8:1],,5/1-3[8:1],
3,5/1-7[8:1],7,5/1-3[8:1],3,1/5,7,1w5[8:1],
,1b,,8h[8:1]/2h[8:1],,3h[8:1]/7h[8:1],,4/6,
4,4/2,4,4/6,4,4/2,4,{16}4,5,
4,5,4,5,,,{8}2/3,3/4,5/4,5/6,6/7,
5/6,5/4,4/3,3-7[8:1]/2-8[8:1],,2-6[8:1]/3-5[8:1],,3b/2b,
,,,2/3,3,1/2,2,8/1,
1,8/7,8,3b/Cf,{6}7b/Cf,1b/Cf,5b/Cf,
{24},,,,,,,,,{8}1-3[8:1],5,1-7[8:1],5,1-3[8:1],
5,1-7[8:1],5,1-3[8:1]*-4[8:1],,1-7[8:1]*-6[8:1],,1b,
,,,4/5,3,5/4,6,5/4,
2,4/5,7,{32}1bx,2,{16}3,{32}8bx,7,{16}6,{32}2bx,3,{16}4,{32}1bx,8,{16}7,{32}2bx,3,4,5,
6,7,8,1,{8}2b,{16}8,7,{8}6,2v5[8:1],5V38[8:1],2,7,
6-8-4[8:1],4V63[8:1],6,2v5[8:1],1,2/8<5[8:1],7,{32}1b/8b,2,3,4,
,,,,{8}3,{16}3,2,{8}1,7v4[8:1],4V61[8:1],7,2,
3-1-5[8:1],5V36[8:1],3,7v4[8:1],8,7/1>4[8:1],2,{32}8b/1b,7,6,5,
,,,,,,,,{16}6,7,{8}8,2>5[8:1],6<1[8:1],2-6[8:1],6,
2,7-4[8:1],4V26[8:1],7,2,1>4[8:1],8,{32}5b/1b,6,7,8,
,,,,{16}3,2,{8}1,7<4[8:1],3>8[8:1],7-3[8:1],3,7,
2,{16}1/5,2/6,{8}3/7,4b-1[8:1]/8b-5[8:1],,4b/8b,{16},,4bx/8bx,1bx/5bx,
2bx/6bx,3bx/7bx,{8}4bx/8bx,{16}1,2,{8}3,7v4[8:1],4V61[8:1],7,2,
3-1-5[8:1],5V36[8:1],3,7v4[8:1],8,7/1>4[8:1],2,{32}8b/1b,7,6,5,
,,,,{16}6,7,{8}8,2v5[8:1],5V38[8:1],2,7,6-8-4[8:1],
4V63[8:1],6,2v5[8:1],1,2,8<5[8:1],7,{32}1b/8b,2,3,4,
,,,,{8}3,{16}3,2,{8}1,7<4[8:1],3>8[8:1],7-3[8:1],3,
7,2-5[8:1],5V73[8:1],2,7,8<5[8:1],1,{32}8b/4b,3,2,1,
,,,,{16}6,7,{8}8,2>5[8:1],6<1[8:1],2-6[8:1],6,2,
7,{16}8/4,7/3,{8}6/2,5b-8[8:1]/1b-4[8:1],,5b/1b,{16},,3b,5b,
1b,7b,{8}4b,,1>4[8:1]/5<8[8:1],,1/5,,1/2x-7[8:1],
1,1/2x-5[8:1],1,1/2x-7[8:1],1,1/2x-5[8:1],1,1/2x-7[8:1],
,2b/7b,,4-1[8:1]/5-8[8:1],,4b/5b,,2-6[8:1],
2,2/7-3[8:1],7,7/4p7[8:1],4,4/5q2[8:1],5,5b,
,,,8<5[8:1]/4>1[8:1],,8/4,,8/7x-2[8:1],
8,8/7x-4[8:1],8,8/7x-2[8:1],8,8/7x-4[8:1],8,8/7x-2[8:1],
,7b/2b,,8w4[8:1],,8b,,1-5[8:1],
8-4[8:1],1,8,{16}1,8,1,8,{32}1b,2,3,4,5,6,7,8,1b,2,3,4,
5,6,7,8,{8}1b,,3h[8:1]/5h[8:1],,4h[8:1]/6h[8:1],,2h[8:1]/8h[8:1],
,7h[8:1]/1h[8:1],,6/2>5[8:1],,2b/8bw4[8:1],{16},,8b,Cf,
,,,,{8}7/5,6,4/2,3,4/5,7,
4/5,2,{12}4/5,7bh[96:13]/8bh[96:13],,{6}3bh[8:1]/4bh[8:1],5bh[48:7]/6bh[48:7],2bh[96:13]/1bh[96:13],
6bh[32:5]/3bh[32:5],2bh[48:7]/7bh[48:7],{24},{8}6h[8:1]/4h[8:1],,5h[8:1]/3h[8:1],,7h[8:1]/1h[8:1],
,2h[8:1]/8h[8:1],,3/7<4[8:1],,7b/1bw5[8:1],{16},,1b,Cf,
,,,,{8}1/6h[4:1],2,3,8/2h[4:1],7,6,
1-5[8:1],8-4[8:1],1,8,{32}1b,2,{16}3,{32}8b,7,{16}6,{32}1b,2,{16}3,{32}8b,7,{16}6,
,,,,6,5,{8}7-4[8:1],4/8,7/3-8[8:1],2,3/5-8[8:1],
6,5/2-6[8:1],1,2/7-3[8:1],8,7,2,{32}5b-1[8:1],6,7,8,
1,2,3,4,{8}5b,{16}3,4,{8}2-5[8:1],5/1,2/6-1[8:1],7,6/4-1[8:1],
3,4/7-3[8:1],8,7/2-6[8:1],1,2,7,{32}4b-8[8:1],3,2,1,
8,7,6,5,{8}4b,{16}3,4,{8}2-4[8:1],4v7[8:1],2,6v1[8:1],5,
6,8V25[8:1],5-1[8:1],8,6,7,7v4[8:1],{32}3bv8[8:1],4,5,6,
7bx,8,1,2,{8}3bx,{16}6,5,{8}7-5[8:1],5v2[8:1],7,3-7[8:1],4,
3,8-4[8:1],1-5[8:1],8b-6[8:1],1b-3[8:1],8b,1b,Cf,
{16},,,,6x/4x,3x/5x,{8}4x/2bx-6[8:1],1,2,8-4[8:1],3,
8,1-5[8:1],6,1,7-3[8:1],8-4[8:1],7,8b,
{32},,,,8,8,8,8,{16}8,1,{8}2-5[8:1],1,2,8-4[8:1],3,
8,1-6[8:1],5,1,4-8[8:1],2-6[8:1],4,2b,
{32},,,,1,1,1,1,{16}1,8,{8}7-4[8:1],8,7,1-5[8:1],5,
1,4-8[8:1],2,4,3-6[8:1],7-2[8:1],3,7b,
{16},,,8,1,2-5[8:1],,1,,2,,8-4[8:1],,4,,8,
,5-1[8:1],,7,,5,,6-3[8:1],,2w6[8:1],,6,,2b,,,,,,,,,,,,,{8}1>5[4:1],
,5<1[4:1],
,1>4[4:1],,4<7[4:1],,7>2[4:1],,2>5[4:1],
,5<1[4:1],,1>4[4:1],,4<7[4:1],,7>2[4:1],
,2w6[4:1],,A2f,,,,,2-6[8:1],
1-5[8:1],2-4[8:1],1-7[8:1],2<5[8:1],1,{4}2,
4/8<5[8:1],4/8>3[8:1],{8}8,4h[4:1],,8,
,,1x-7[8:1],1x-6[8:1],1x-5[8:1],1x-4[8:1],1x-3[8:1],1x-5[8:1],
1<1[1:1],1x,{4}1x,{8},,,,,,,,,8<4[4:1],
,4>8[4:1],
,8<5[4:1],,5>2[4:1],,2<7[4:1],,7<4[4:1],
,4>8[4:1],,8<5[4:1],,5>2[4:1],,2<7[4:1],
,7w3[4:1],,A7f,,,,,7-3[8:1],
8-4[8:1],7-5[8:1],8-2[8:1],7>4[8:1],8,{4}7,
{8},1p6[4:1]*q4[4:1],,1,,,,,3-8[8:1],
7-2[8:1],3-6[8:1],7-4[8:1],3-8[8:1],7-4[8:1],3-7[8:1],7,
3-6[8:1],6,3,7<7[8:3],,,,,,,{4}B7,
B8,B1,
B2,B3,B4,B5,
B6,B7,B8,B1,
B2,B3,B4,B5,
B6,{8}B2,5/4,E8/B8,4/5,B1/E2,4/5,
E7,4/5,E3,4/5,B7/E8,4/5,E2/B2,5/4,
B6/B5,5/4,B4/B3,5/4,C,5/4,C,5/4,
B7/E8/B8,5/4,B3/E4/B4,5/4,B7/B6,5/4,B2/B3,5/4,
B7/B6/E7,5/4,B2/B3/E3,4/5,B7/E7/B6,2,2,3,
3,4,4,5,5,6,6,7,
7,8,8,1,1,2,2,3,
3,4,4,5,5,6,6,7,
7,8,8,{16}2,7,2,7,2,7,2,7,2,7,
2,7,2,7,{8}2,8b-4b[8:1]/1b-5b[8:1],,8b-6b[8:1]/1b-3b[8:1],,8b/1b,
{16},,,,,,1,2,3,4,5,6,7,8,1,2,
3,4,5,6,7,8,{8}1b/2b,3b/4b,5b/6b,7b/8b,1b/2b,
{16},,,,8,7,{8}6,2v5[8:1],5V38[8:1],2,7,
6-8-4[8:1],4V63[8:1],6,2v5[8:1],1,2/8<5[8:1],7,{32}1b/8b,2,3,4,
,,,,{8}3,{16}3,2,{8}1,7v4[8:1],4V61[8:1],7,2,
3-1-5[8:1],5V36[8:1],3,7v4[8:1],8,7/1>4[8:1],2,{32}8b/1b,7,6,5,
,,,,,,,,{16}6,7,{8}8,2>5[8:1],6<1[8:1],2-6[8:1],6,
2,7-4[8:1],4V26[8:1],7,2,1>4[8:1],8,{32}5b/1b,6,7,8,
,,,,{16}3,2,{8}1,7<4[8:1],3>8[8:1],7-3[8:1],3,7,
2,{16}1/5,2/6,{8}3/7,4b-1[8:1]/8b-5[8:1],,4b/8b,{16},,4bx/8bx,1bx/5bx,
2bx/6bx,3bx/7bx,{8}4bx/8bx,{16}1,2,{8}3,7v4[8:1],4V61[8:1],7,2,
3-1-5[8:1],5V36[8:1],3,7v4[8:1],8,7/1>4[8:1],2,{32}8b/1b,7,6,5,
,,,,{16}6,7,{8}8,2v5[8:1],5V38[8:1],2,7,6-8-4[8:1],
4V63[8:1],6,2v5[8:1],1,2,8<5[8:1],7,{32}1b/8b,2,3,4,
,,,,{8}3,{16}3,2,{8}1,7<4[8:1],3>8[8:1],7-3[8:1],3,
7,2-5[8:1],5V73[8:1],2,7,8<5[8:1],1,{32}8b/4b,3,2,1,
,,,,{16}6,7,{8}8,2>5[8:1],6<1[8:1],2-6[8:1],6,2,
7,{16}8/4,7/3,{8}6/2,5b-8[8:1]/1b-4[8:1],,5b/1b,{32},,,,2b,3b,4b,5b,
6b,7b,{16}8b,{8}1b,,7/6,5/6,5/4,4/3,2/3,
3/4,4/5,5/6,{16}4,5,4,5,4,5,4,5,4,5,
4,5,{8}4,,7/1,{16}8,8,{8}8,3/7,{16}2,6,
1,7,{8}2,3/8,4/6,{16}5,5,{8}5,7/3,{16}2,6,
3,7,{8}4,3/8,1/6,{16}8,7,{8}8,1/3,{16}2,4,
3,5,{8}4,4/5,5b/4b,4b/5b,4b/5b,4b/5b,4b/5b,
{32}2b,3,4,5,{8}6,{32}8b,7,6,5,{8}4,6/4,{16}5,5,{8}5,2/6,
{16}3,7,4,6,{8}3,2/5,1/7,{16}8,8,{8}8,6/2,
{16}3,7,2,6,{8}1,2/5,4/7,{16}5,6,{8}5,4/2,
{16}3,1,2,8,{8}1,1/8,{16}2,7,3,6,4,5,2,2,
6,6,3,3,6,7,{8}8b-6b[8:1]*-5b[8:1],,8b-2b[8:1]*-3b[8:1],,8bw4b[8:1],
,8b,{32},,,,6b,5,4,3,2,1,8,7,6/3b,4,5,6,7,8,1,2,6b/3,5,4,3,
2,1,8,7,6/3b,4,5,6,7,8,1/7,2/6,{8}3b-7-4-8b[4:9]/5b-1-4-8b[4:9],
E
