&title=Speculation
&artist=ZAQUVA
&first=0
&des_5=神曲,我懂得欣赏
&lv_5=神谱
&des=神曲,我懂得欣赏
&clock_count=4
&inote_5=(190){4},,,,,,,,4bh[8:3]/3bh[2:1],
,,2/5,
{8}5/6h[8:3],,,4,{4}3h[4:1],{8}4,4,
5/3h[4:1],,,6/4h[4:1],,,{4}6/5h[8:1],
{16}6-4[0.3158##0.3158],,,,{4}4-7[4:1],7-3[4:1],{8}4x,4x,
{4}4xh[4:1],6h[4:1],{8}5,5,6,6,
{2}3h[8:3]/5h[4:1],{8}4,5,6,4,
6h[4:1]/3h[4:1],,,5h[4:1]/4h[4:1],,,4,5,
4,{16}6,5,{8}6,3,{16}5,4,6,4,{4}7-4[8:1],
7b/2-5[8:1],2/6,{8}7,6,5/2,3,
{4}4/6,{8}5,4,5/3,4,4,{16}5,5,
{4}4-2[8:1],4/5-7[8:1],5/4-1[8:1],4/5-8[8:1],
5/4>1[8:1],4/5,{16}7,8,{8}7,1/6,{16}2/5,3,
{8}4x/6x,4/6,5/3,5/3,4/7,4/7,5/2,5/2,
{16}7,8,7,8,6,1,6,1,5,2,5,2,4-1[8:1],3,4,3,
{4}4x,{8},,,,E7/B7/B6,E3/B2/B3,
8x,{16}2,1,{8}2,{16}6,7,8-4[8:1],1,{8}2,{4}8/4,
{48}2/8-3[8:1],D8f,A7,D7,A6,D6,{8}A5,{4}5h[8:1]/8x-6[8:1],5h[8:1]/8x-3[8:1],5h[8:1]/8x-6[8:1],
5h[8:1]/8x-3[8:1],5h[8:1]/8x-6[8:1],5h[8:1]/8x-3[8:1],{8}8x,{16}6,7,
{4}4/8-5[8:1],2/8-2[8:1],6/8<5[8:1],3/8z4[2:1],
{16}8x/Cf,,,,,,,,,,,,,4,{8}5,
{2}2bxh[4:1]/1xq5[8:1],7bh[4:1]/8p4[8:1],
{4}2b/1q5[8:1],1b/8p4[8:1],{2}8b/7,
{16}5/4,4x/5x,{8}5x/4x,6/8,{16}1/2,2x/1x,{8}1x/2x,3/8,4x/7x,6x/5x,
{16}3x,3x,3x,3x,2x,2x,2x,2x,1x,1x,1x,1x,{4}2b/8b,
{48}8b,7x,6x,5xh[16:3],,,,,,,,,1b,2x,3x,4xh[16:3],,,,,,,,,5b,6x,7x,8xh[16:3],,,,,,,,,{8}1,1,
{48}1b,2x,3x,4xh[16:3],,,,,,,,,8b,7x,6x,5xh[16:3],,,,,,,,,4b,3x,2x,1xh[16:3],,,,,,,,,{8}5,5,
{48}5b,6x,7x,8xh[16:3],,,,,,,,,4b,3x,2x,1xh[16:3],,,,,,,,,8b,7x/2x,6x/3x,5x/4x,,,,,,,,,5b/4b,6x/3x,7x/2x,8x/1x,,,,,,,,,8b/1b,
7bx/2bx,6bx/3bx,5bx/4bx,,,,,,,,,8b/1b,7bx/2bx,6bx/3bx,5bx/4bx,,,,,,,,,8bz4[8:1]/1bs5[8:1],7bx/2bx,6bx/3bx,5bx/4bx,{4},{16},,{24},{48}1b/2,
8x,7x,6x,,,,,,,,,1b/2,8x,7x,6x,,,,,,,,,1b/2v5[8:1],8x,7x,6x,{4},{16},,{24},{48}8b/7,
1x,2x,3x,,,,,,,,,8b/7,1x,2x,3x,,,,,,,,,8b/7v4[8:1],1x,2x,3x,{4},{16},,{24},{48}8b/1b,
7,6,5,,,,,,,,,2b/1b,3,4,5,,,,,,,,,7b/8b,6,5,4,,,,,,,,,{8}8/1,8/1,
{4}Ch[4:3],,,8-4[8:1],
8/2`Cf,{8}7/5,{16}3,4,,7,{8}8,{16}6,5,{8}7,
2/1,{16}7,4,{8}8,{16}6,1,,3,{8}8,{16}4,4,5,5,
4,3,2,5/1,6,7,1/8,2,3/6,7,8,1/4,5,6,{8}7/2,
{16}2,4,3,7,5,6,2,1,3,7,8,6,4,4,5,5,
{4}Cf,{8}2/4,{16}6,5,,2,{8}1,{16}3,4,{8}2,
7/8,{16}2,5,{8}1,{16}3,8,,6,{8}1,{16}5,5,4,4,
{12}6,6,6,2,2,2,{16}7x/8x,7x/8x,7x/8x,7x/8x,1x/2x,1x/2x,1x/2x,1x/2x,
{8}8bxs4[8:5],{16}8bx,8bx,{8}8bx,{16}8bx,8bx,{4}8bx-4b[8:1],8bx,
{1}Cf/A5/B5/A7/B7/A3/B3/B1/A2/A6/B6/A4/B4/A8/B8/B2/A1,
{4},,,,,,,,,,,,4h[8:5],
{8}1,1<5[4:1],,,3,2<6[4:1],
,5,4,3>7[4:1],,5,{4}4,
{8}6xh[8:1],5,3h[8:1],4,5,6,{4}7h[4:1],
{16}8,6,,3,{8}1,{16}5,4,{8}5,5/3,{4}5/1-5[8:1],
1/7,{8}7/E1,E2,{4}7,{8}7/E1,E2,
7/E5,E4,6/E3,E2,5/E1,E8,{4}E7/4-8[8:1],
2/4,{8}2/E1,E8,{4}2,{8}2/E1,E8,
2/E5,E6,3/E7,E8,4/E1,E2,{4}5/E3,
{8}6,7/5,7/5,7/5,2/4,2/4,2/4,2/4,
{16}1,8,2,7,3,6,4,5,3,6,2,7,1,6,2,5,
{8}4/3-8-6<4[8:5],Ch[8:5],{16},,,,,,,,,,,,8-5[8:1],
,,1,{8}8-3[8:1],2,{4}8/3,B7/E7/B6/Cfh[4:1],
1b-5b[8:1],1b/8b-4b[8:1],{8}8b/1b-5b[8:1],2b,1b/8b-4b[8:1],7b,
8b/1b>4b[8:1],2b,1b/8b<5b[8:1],7b,{4}8b/4bx>1b[8:1],{8}4b/8b,7b,
8b-4b[8:1],7b,{4}8b/1b-5b[8:1],{8}1b/8b-4b[8:1],7b,8b/1b-5b[8:1],2b,
1b/8b<5b[8:1],7b,8b/1b>4b[8:1],2b,1b/5bx<8b[8:1],6b,5b/1b,2b,
4b>1b[8:1],3b,{4}4b/5b<8b[8:1],{8}5b/4b-8b[8:1],3b,4b/5b-1b[8:1],6b,
5b/4b-8b[8:1],3b,4b/5b-1b[8:1],6b,5b/1b,2b,3b,4b,
5b<8b[8:1],6b,{4}5b/4b>1b[8:1],{8}4b/5b-1b[8:1],6b,5b/4b-8b[8:1],3b,
4b/5b-1b[8:1],6b,5b/4b-8b[8:1],3b,4b/7x>2v4[16:3],6x,{4}7x,
{8}5x-8[8:1],5x,{4}5bx/2-5[8:1],{8}2/7-4[8:1],8,7/3-8[8:1],2,
6/3-5[8:1],6,3/7,7,{16}8-4[8:1],,,1,{8}8,2,
3-5[8:1],3x,{4}3bx/7-4[8:1],{8}7/2-5[8:1],1,2/6-1[8:1],7,
4/6-4[8:1],3,6/3,2,{16}5/1-5[8:1],2/6,{8}3/7,1/5,3,
4b-2[8:1]/6b-4[8:1],4b/6b,{4}4b/6b-1[8:1],{8}1/6>3[8:1],3,6<1[8:1],1,
6-4[8:1],4-7[8:1],6,2,{16}1,1,{8}8,{16}3,3,5,5,
{6}6bh[12:1]/4bh[12:1],7h[12:1]/5h[12:1],6/4,3bh[12:1]/5bh[12:1],2h[12:1]/4h[12:1],3/5,
{16}8,5,7,4,6,3,5,2,1x/5-2[8:1],8x,7x,6x,{4}5bx/8b,
{8}7x-2b[8:1]/3x-6-4[8:1],6,{4}7b/3V15[4:1]`Cf,{16},8,,,{8}8,{24}7,6,5,
{8}4x-7b[8:1]/8x-3-1[8:1],1,{4}4b/8V62[4:1]`Cf,{16},5,,,{8}5,{24}4,3,2,
{8}5x-8b[8:1]/1x-4-2[8:1],6,{4}5b/1V73[4:1]`Cf,{16},6,,,{8}6,{24}1,8,7,
{16}4h[8:1]/6h[8:1],,,3h[8:1]/5h[8:1],,,{8}2h[8:1]/4h[8:1],{16},3h[8:1]/5h[8:1],,,{8}6-1[8:1]/4-1[8:1],5,
{4}4/6-4-8[8:1],{8}6b/2b,3-8-2-5[4:1],{16},4,,,{8}5,{24}6,7,8,
{4}1/3-1-5[8:1],{8}3b/7b,8-5-7-1[4:1],{16},1,,,{8}2,{24}3,4,5,
{4}8/6-8-4[8:1],{8}6b/2b,1-4-2-5[4:1],{16},8,,,{8}7,{24}1b,8b,7b,
{16}4bh[8:1]/6bh[8:1],,,3h[8:1]/5h[8:1],,,{8}2h[8:1]/4h[8:1],{16},3h[8:1]/5h[8:1],,,{8}8,8,
{48}8b/1,7,{24}6,{48},,,,1b,2,{24}3,{48},,,,7b,6,{8}5,{48}2b,3,{24}4,{48},,,,1b,8,{24}7,{48},,,,3b,4,{8}5,
{48}8b,7,{24}6,{48},,,,1b,2,{24}3,{48},,,,7b,6,{8}5,{48}2b,3,{24}4,{48},,,,8b,7,{24}6,{48},,,,1b,2,{8}3,
{24}8b,7,6,5/8,,,{8}1,{24}1b,2,3,{8}4/1,8,7/1,{16}8,8,
{32}7/1b,2,3,4,,,8b/6,1,2,3,,,7b/5,8,1,2,5bxv8[8:1]*v2[8:1],6bx,7bx,8bx,1bx,2bx,3bx,4bx,{4}5bx,
{6}1b-6b[16:1],5b-2b[16:1],8b-5b[16:1],4b-1b[16:1],7b-4b[16:1],3b,
8b-3b[16:1],4b-7b[16:1],1b-4b[16:1],5b,{12}2,7b,7b,7b,
{48}8b/1b,7,6,5,4,3,{8}1,1,{48}1b/8b,2,3,4,5,6,{8}8,8,{16}1,1,1,1,
8b,6,7,1b,3b,2,4,8b,5b,6,4,7b,{32}1bw5[8:1],1b,1b,1b,{16}1b,1x,
{64},Cf/A7/D7/A6/D6/A5/D5/A4/D4/A3/E8/E6/E5/E7/B4/B5/B6/B7/B8/B1/E4/E3/B3/B2/D8/D3,
E
E
