&title=the EmpErroR (Full ver.)
&artist=sasakure.‌UK
&first=0.38
&des=おめが
&lv_7=耐狂
&inote_5=
&inote_7=(240)
{8}2/7,,4,5,,3/6,,1/8,,2,3,4,
{16}6,5,
{8}6,7,8,4/5h[8:3],3,2,1,1h[8:3]/8,7,6,5,3-1[8:1]/4,,8,6,6-8[8:1],4,6,,7/2,,5,4,,6/3,,8/1,,7,6,5,
{16}3,4,
{8}3,2,1,5/4h[8:3],6,7,8,8h[8:3]/1,2,3,4,6-8[8:1]/5,,1,3,3-1[8:1],5,3,7,2-4[8:1]/8,,5,,8,7/5,3,8,
{16}2,1,2,1,
{8}2-5[8:1],3/8,2/6-2[8:1],,6/7,,8-4[8:1],,1/8,,3,2,1/8,7,6/5,4-7[8:1],3,2/4,
{16}1v6[8:1],2,3,4,
{8}5/1,,7-5[8:1]/1,,4,,1,2/4,6,1,
{16}7,8,7,8,
{8}7-4[8:1],6/1,7/3-7[8:1],,3/2,,1w5[8:1],2/8,,,3/7,3/7,2b/8b,,1/6,1/6,3/8,3/8,2/5,2/5,4/7,4/7,1b/8b<5[8:1],2,8>3[8:1],4-1[8:1],8,4,5-2[8:1],6,7/5,8-4[8:1],1,2<7[8:1]/8,,2/5,6,,1-5[8:1]/7,2,1/7-3[8:1],6,1-5[8:1]/7,8,1/7,8,1/2,3/8,4-8[8:1],7,4/6-2[8:1],,1/6,,4-1[8:1]/5-8[8:1],,4/5,,2/7,3/6,4-8[8:1]/5,3,2-5[8:1]/4,1,2/6,7-4[8:1],,7/1,3,,
{24}2/6,1,8,
{8}7>2[8:1],6,
{24}2/7,3,4,
{8}5-8[8:1],4,5/3,,1/7,2/6,1/7,2/6,1/7,2/6,1/7,2/6,8b/1b>4[8:1],7,1<6[8:1],5-8[8:1],1,5,4-7[8:1],3,2/4,1-5[8:1],8,7>2[8:1]/1,,7/4,3,,8-4[8:1]/2,7,8/2-6[8:1],3,8-4[8:1]/2,1,8/2,1,8/7,6/1,5-1[8:1],2,5/3-7[8:1],,8/3,,5-8[8:1]/4-1[8:1],,5/4,,7/2,6/3,5-1[8:1]/4,6,7-4[8:1]/5,8,7/3,2-5[8:1],,2/8,6,,
{24}7/3,8,1,
{8}2<7[8:1],3,
{24}7/2,6,5,
{8}4-1[8:1],5,4/6,,8/2,7/3,8/2,7/3,8/2,7/3,8/2,7/3,2b/8h[4:1],3,4,5/7,6,2/8h[4:1],3,4,5/6,2/8h[4:1],3,4,6/5,8/2,8/2,,7/1h[4:1],6,5,4/2,3,7/1h[4:1],6,5,4/3,7/1h[4:1],6,5,3/4,1/7,1/7,,2b/5b-8[8:1],,2/5,,5-8[480#4:1]/2,5,2,5-8[480#4:1],5/2,,2/5-8[480#4:1],5,2,5-8[480#4:1],5/2,,
{16}3,4,3,4,2,5,2,5,1,6,1,6,8,7,8,7,5,6,5,6,4,7,4,7,3,8,3,8,2,1,2,1,
{8}7/4-1[8:1],,7/4,,4-1[480#4:1]/7,4,7,4-1[480#4:1],4/7,,7/4-1[480#4:1],4,7,4-1[480#4:1],4/7,,3/7,2-4[8:1]/8-4[8:1],3/7,2-6[8:1]/8-6[8:1],,2/8,,1/8,
{16}2,7,3,6,
{8}4/5,3/6,4h[8:1]/5h[8:1],,2/7,,
3/8-5[8:1],,3/8,,8-5[480#4:1]/3,8,3,8-5[480#4:1],8/3,,3/8-5[480#4:1],8,3,8-5[480#4:1],8/3,,
{16}2,1,2,1,3,8,3,8,4,7,4,7,5,6,5,6,8,7,8,7,1,6,1,6,2,5,2,5,3,4,3,4,
{8}6/1-4[8:1],,6/1,,1-4[480#4:1]/6,1,6,1,5/3,6/2,7/1,8,6/4,7/3,8/2,1,4b/6b,5-1[8:1],4,3h[4:1]/5,,,5/3,4-8[8:1],5,6h[4:1]/4,,,4/6,5-1[8:1],4,3h[4:1]/5,,,3/5,4,5,4/6,5,4,5/3,2,1,2/8,1b/7b,8-4[8:1],1,2h[4:1]/8,,,8/2,1-5[8:1],8,7h[4:1]/1,,,1/7,8-4[8:1],1,2h[4:1]/8,,,2/8,1,
{16}8,2,8,2,7,1,7,1,6,8,6,8,5,7,5,7,
{8}4b<7[8:1],3,2,1>4[8:1],8,7,6<1[8:1],5,4,3<6[8:1],2,1,8>3[8:1],7,6,5<8[8:1],4,3,2>5[8:1],1,8,7>2[8:1],6,5,4w8[8:1],,4,,5-2[8:1],6,7,8-5[8:1],1,2,3-8[8:1],4,5,6-3[8:1],7,8,1-6[8:1],2,3,4-1[8:1],5,6,7-4[8:1],8,1,2-7[8:1],3,4,5,5,4/6,4/6,7b-3[8:1],1,8,2-6[8:1],4,3,5-1[8:1],7,6,8-4[8:1],2,1,3-7[8:1],5,4,6-2[8:1],8,7,1-5[8:1],3,2,4-8[8:1],6,5,7w3[8:1],,7,,1/5,1/5,2/6,2/6,3/7,3/7,4/8,4/8,
{16}1,5,1,5,8,4,8,4,7,3,7,3,6,2,6,2,5,1,5,1,4,2,4,2,4,3,5,2,6,1,7,8,6,5,7,4,8,3,1,2,
{8}8h[8:13],2,3,4,,2,,5,,1,,6,,7,8,,1b/7h[8:7],,2,3,,5,,1,,2,,3,,4,,5,7h[8:7],1,,2,,
{6}3,3,3,3,3,3,4,
{24},
{6}5,
{8}1/7h[8:7],,2,3,,5,,1,,2,,3,,4,,5,7h[8:7]/1,1,,2,,3,4h[1:1],,8,,8,8,,8,,8,8b/2b,,7/3,6,2,4,1,8,2,7,3,6,2,5,1,4,2,8,3,7,2,
{24}6,,,1,6,,,,6,2,,,6,,,3,6,,,,6,2,,,5,,,1,,4,,,,
{8}8/2,,7/3,6,2,4,1,8,2,7,3,6,2,5,1,4,2/8,8,,7,,6,5h[4:1]/1s5[4:3]*z5[120#4:1],,
{1}1z5[2:1],
{8}4b/7b<4[8:1],,2/7,1,8,2>5[8:1]/7,6,2/5,6-1[8:1],6,6/2>5[8:1],2,
{24}2/5,6,7,
{8}8,1/2,8,
{16}7/8,1,2,3,4/5,6,7,8,1/2,3,4,5,6/2,7,8,1,2/1,8,7,6,4/5,3,2,1,8/7,6,5,4,3/7,2,1,8,
{8}7/8>3[8:1],,4/8,5,6-1[8:1],6,6/2-5[8:1],2,2/6,7,4/8,3,
{24}1/2,3/8,4/7,
{8}5/6,7<4[8:1],8,1/7,2>5[8:1],1,8/2,7,6,4/5,3,
{16}2-5[8:1],1,3,8,
{8}2,7h[4:1],6<1[8:1],5,6/4,,5b/2b>5[8:1],,7/2,8,1,7<4[8:1]/2,3,7/4,3-8[8:1],3,3/7<4[8:1],7,
{24}7/4,3,2,
{8}1,8/7,1,
{16}2/1,8,7,6,5/4,3,2,1,8/7,6,5,4,3/7,2,1,8,7/8,1,2,3,5/4,6,7,8,1/2,3,4,5,6/2,7,8,1,
{8}2/1<6[8:1],,5/1,4,3-8[8:1],3,3/7-4[8:1],7,7/3,2,5/1,6,
{24}8/7,6/1,5/2,
{8}4/3,2>5[8:1],1,8/2,7<4[8:1],8,1/7,2,3,5/4,6,7/8,7/8,7/8,1/6,7/8,2/5,7/8,3/4,6b/1b-6[8:1],,1/5,,7-4[8:1]/4,8,3-7[8:1]/7,2,1/3,8-4[8:1],,2/8,3>1[8:1]*<6[8:1],,3,,3/8-3[8:1],,8/4,,2-5[8:1]/5,1,6-2[8:1]/2,7,8/6,1-5[8:1],,7/1,
{16}8v3[8:1],7,6,5,
{8}4/8,,2-5[8:1]/6,,2/4-7[8:1],,3/4,2,1-5[8:1],6,1/7,8-3[8:1],,3/8,4-1[8:1]*-7[8:1],,4,,
{16}2,6,2,6,2,6,2,6,1,7,1,7,1,7,1,7,
{8}8,1/7,2/6,3/5,1h[16:1],2h[16:1]/8h[16:1],3h[16:1]/7h[16:1],4h[16:1]/6h[16:1],
{16}2b/7b,,3,4,3,4,2,,7,8,6,,4/5,,2,4,3,7,5,6,3,,4/5,,6,5,6,5,7,,1/8,,2,4,3,4,2,,7,5,6,5,7,,4/8,,7,8,6,2,1,3,8,1,8,,3,6,4,5,3,6,3,,2/7,,3,4,2,6,5,7,2,1,3,7,8,6,1,,3/5,5,3,3,4,4,2,2,5,5,1,1,6,6,8,8,7b,8,6,1,7,8,6,1,4,3,5,2,4,3,5,2,
{32}6b,5,4,3,2,1,8,7,6,5,4,3,2,1,8,7,2b/6b,3,4,5,6,7,8,1,2,3,4,5,6,7,8,1,
{8}2h[8:1]/6h[8:1],,2z6[4:5]/6h[8:1],,,1,8,7,,3,4,5,,2,2,,7h[8:1]/3h[8:1],,7s3[4:5]/3h[8:1],,,8,1,2,,6,5,4,,7,7,,4b/8b-5[8:1],,3/8,2-5[8:1],1,2/8,7,6-1[8:1],5,4/6,3,2-5[8:1],1,2/8,7,6,5,4-1[8:1]/6,3,4/5-8[8:1],,4/5,,4/5,2/7,1/8,2/7,3-8[8:1]/6-1[8:1],,3-5[8:1]/6,,3/6,
{16}8,7,
{8}6,6/1,7-4[8:1],8,7/1,2,3-8[8:1],4,5/3,6,7-4[8:1],8,7/1,2,3,4/5h[4:1],3,2,1/6,7h[4:1]/8,1,2,3/6,4/5h[8:1],3,2/6,1/7h[8:1],8,1/6,2/5,3/4,1/5-8[8:1],,2/5,3-8[8:1],4,3/5,6,7-4[8:1],8,1/7,2,3-8[8:1],4,3/5,6,7,8,1-4[8:1]/7,2,1/8-5[8:1],,1/8,,1/8,3/6,4/5,3/6,2-5[8:1]/7-4[8:1],,2/7-1[8:1],,2/7,
{16}2,3,
{8}4,7/4,6-1[8:1],5,6/4,3,2,1/8,1/8,1/8,1/8,2/7,2/7,2/7,2/7,
{16}7b/3h,6,5,4,3,2,1b/5h,8,7,6,5,4,3b/7h,2,1,8,7,6,5b/1h,4,3,2,1,8,7b/3h,6,5,4,3,2,1b/5h,8,7,6,5,4,3b/7h,2,1,8,7,6,5b/1h,4,3,2,1,8,
{8}7-4[8:1]/3-8[8:1],,3/7,,1bv4[8:1],8h[16:1],7h[16:1],6bv1[8:1],5h[16:1],4h[16:1],3bv6[8:1],2h[16:1],1h[16:1],8bv3[8:1],7h[16:1],6h[16:1],5bv8[8:1],4h[16:1],3h[16:1],2bv5[8:1],1h[16:1],8h[16:1],7h[16:1],6h[16:1],5/4,5/4,5/4,5/4,3/6,3/6,3/6,3/6,7b-4[8:1]/2b,8,1,2b-5[8:1],1,8,7b<4[8:1],8,1,2b>5[8:1],1,8,7bv4[8:1],8,1,2bv5[8:1],1,8,7bp3[8:1],8,1,2bq6[8:1],1,8,7b-2[8:1]*-4[8:1],,7,,3b-8[8:1]/6,4,5/3,6b-1[8:1],5,4/6,3b>8[8:1],4,5/3,6b<1[8:1],5,4/6,3bv8[8:1],4,5/3,6bv1[8:1],5,4/6,3bp7[8:1],4,5/3,6bq2[8:1],5,4/6,3,3,2/4,2/4,5-8[8:1],5,1-4[8:1]/5,1,7-2[8:1]/1,7,3-6[8:1]/7,3,8-5[8:1]/3,8,4-1[8:1]/8,4,6-3[8:1]/4,6,2-7[8:1]/6,2,4-7[8:1]/2,4,2-5[8:1]/4,2,1-6[8:1]/2,1,3-8[8:1]/1,3,4w8[8:1]/3,,4,,2/6,2/6,3/5,3/5,4h[16:1],4h[16:1],
{16}4,6,4,6,3,7,3,7,2,8,2,8,3,7,2,8,3,7,2,8,3,7,2,8,3,7,2,8,1b,1,1,1,1,1,1,1,1,1,1,1,1,1,1,1,1,1,1,1,1,1,1,1,1,1,1,1,1s5[1:1]*>8[120#4:3],1,1,1,
{1}1b>8[2:3],,
{8}2-5[8:1]/6,,8,,4/6,3,2,1-5[8:1]/8,,6,7,8,
{24}2,1,2,
{8}1,3/8,4/7,
{16}4/8,3/7,2/6,1/5,8,7,6,5,4/8,3/7,2/6,1/5,8,7,6,5,4/8,3/7,2/6,1/5,4,3,2,1,4/8,3/7,2/6,1/5,4,3,2,1,
{8}4/8-4[8:1],,1/8,,3/5,2,1,7/8,6,5,4,3,
{24}2,1,2,
{8}1,3,4,
{16}6,5,
{8}6,7,8,1,2,
{24}3,4,3,
{8}4,5,6,
{16}7,8,
{8}7,1,2,3,4,7-4[8:1]/3,,1,,5/3,6,7,8-4[8:1]/1,,3,2,1,
{24}7,8,7,
{8}8,6/1,5/2,
{16}5/1,6/2,7/3,8/4,1,2,3,4,5/1,6/2,7/3,8/4,1,2,3,4,5/1,6/2,7/3,8/4,5,6,7,8,5/1,6/2,7/3,8/4,5,6,7,8,
{8}5/1-5[8:1],,8/1,,6/4,7,8,2/1,3,4,5,6,
{24}7,8,7,
{8}8,6,5,
{16}3,4,
{8}3,2/6,2/6,1/7,1/7,2/8,2/8,2/8,3/7,2/8,3/7,2/8,3/7,
{16}4/8,3/7,2/6,1/5,
{8}4b/8b<5[8:1],1,2V84[4:1]/8,3,2/4,5,6-1[8:1],7/2,5/6,4,3>8[8:1]/7,4/7,
{24}3/8,7,6,
{8}5-2[8:1],6/2,5/7,
{16}8,1,8,1,7,2,7,2,6,3,6,3,5,4,5,4,8,1,8,1,7,2,7,2,6,3,6,3,5,4,5,4,
{8}5b<8[8:1],4,3V51[4:1]/5,2,3/1,8,7-4[8:1],6/2,7/8,1,2>5[8:1]/6,3/6,
{24}2/5,6,7,
{8}8>3[8:1],7,6/8,5bs1[8:1],4/6,3/5,2bw6[8:1],2,2b,,4/8,
{16}2b,1,2,1,
{8}3,4/5,3-7[8:1]/6-2[8:1],2/7,,,5b/1b>4[8:1],8,7V15[4:1]/1,6,7/5,4,3-8[8:1],2/7,4/3,5,6<1[8:1]/2,5/2,
{24}6/1,2,3,
{8}4-7[8:1],3/7,4/2,
{16}1,8,1,8,2,7,2,7,3,6,3,6,4,5,4,5,1,8,1,8,2,7,2,7,3,6,3,6,4,5,4,5,
{8}4b>1[8:1],5,6V48[4:1]/4,7,6/8,1,2-5[8:1],3/7,2/1,8,7<4[8:1]/3,6/3,
{24}7/4,3,2,
{8}1<6[8:1],2,3/1,4,3/5,2/6,1/7,5,4/6,3/7,2/8,3/7,2/6,1/5,2/6,3/7,4/8,
{16}1/5,4/8,3/7,2/6,
{8}1b/5b,1,1/6-4[8:1],6,6/2,2,2/7-5[8:1],7,7/3,3,3/8-6[8:1],8,8/4,4,4/1-7[8:1],1,1/5,5,5/2-8[8:1],2,2/6,
{24}6,,,3-1[8:1],6,,3,,6,3,,,6,,,4,6,,4,,6,
{16}4,7,4,7,4,7,4,7,
{8}4/8-2[8:1],8,8/4,4,4/7-1[8:1],7,7/3,3,3/6-8[8:1],6,6/2,2,2/5-7[8:1],5,5/1,1,
{16}1/5,8,7,6,1/5,4/8,3/7,2/6,1/5,4,3,2,1/5,4/8,3/7,2/6,1/5,4,3,2,5/1,8/4,7/3,6/2,5/1,8,7,6,5/1,8/4,7/3,6/2,1b/5b,,7/3,,4,5,3,6,2,,1/7,,2,8,4,,5b/6b,,1,5,3,7,1,,3/5,,5/7,,3,4,1,6,5b,8,1,,2/6,,3,4,2,,6,5,7,4,8,,4b/2b,,3,5,1,6,4,8,3,5,1,,3/7,,1,5,3b,8,6,4,1,5,3,7,1,5,2,8,4,7,1,5,2b,1,3,8,2,1,3,8,4,7,5,6,4,7,5,6,
{24}4b,5,4,5,4,5,3,6,3,6,3,6,2,7,2,7,2,7,1,8,1,8,1,8,
{32}2b/7h,3,4,5,6/7h,7,8,1,2b/5h,3,4,5,6/5h,7,8,1,2b/7b,6,5,4,3/2h,2,1,8,7b/4h,6,5,4,3/4h,2,1,8,
{8}7h[8:1]/3h[8:1],,7s3[4:5]/3h[8:1],,,6,5,4,,8,1,2,,7,7,,3h[8:1]/7h[8:1],,3s7[4:5]/7h[8:1],,,4,5,6,,2,1,8,,3,3,,4h[8:1]/8h[8:1],,4z8[4:5]/8h[8:1],,,5,6,7,,3,2,1,,4,4,,
{1},
{16}1b,1,1,1,1,1,1,1,1,1,1,1,1,1,1,1,1b,1,1,1,1,1,1,1,1,1,1,1,1,1,1,1,
{24}1b,2,3,4,5,6,7/1,2,3,4,5,6,7/1,2,3,4,5,6,7/1,2,3,4,5,6,7b/1b,8,7,6,5,4,3/1,8,7,6,5,4,3/1,8,7,6,5,4,3-7[8:1]/1,8,7,6,5,4,
{2}3b>6[4:1]/1bs5[4:1],
E
