&title=Cloud
&artist=EZFG
&first=0
&des=和成天下
&lv_5=13+
&des_5=和成天下
&inote_5=
(143){4},{1},{4},{16}3h[8:1],
,,3,,,,,6h[8:1],
,,6,,,,,1h[8:1],,,1,,,,,5h[8:1],
,,5,,,,,{8}2h[8:1],{16}3,2,,,,,{8}8h[8:1],
{16}7,8,,,,,{8}2h[8:1],{16}3,2-7[4:1],,,,,4-1[8:1],
,,4,,,,,1-4[8:1],,,1h[16:3],,,,,5-8[8:1],
,,5h[16:3],,,,,2-7[8:1],,,2h[16:3],,,,,6-3[8:1],
,,6h[16:3],,,,,4<7[8:1],,,4h[16:3],,,,,8>3[8:1],
,,8h[16:3],,,,,5h[16:3],,,6<1[16:3],,,{8}6,
{16}2,3,4,5b,,,,,2-6[8:1],,,6,,,{8}7,
{16}8-5[8:1],,,5,,,{8}4,{16}3>8[8:1],,,8,,,{8}7,
{16}6-1[8:1],,,1,,,{8}2,{16}3<6[8:1],,,6,,,{8}7,
{16}8-4[8:1],,,4,,,{8}3,{16}2,,,2-5[8:1],,,{8}5,
{16}6,7,8<5[16:1],1,,1,{8}8b,{16}3<6[8:1],,,6-1[8:1],,,{8}7,
{16}8-3[8:1],,,3<6[8:1],,,{8}2,{16}1-4[8:1],,,4-7[8:1],,,{8}5,
6-2[8:1],{16}4,4,,3,{8}3,{16}1-5[8:1],,,5<8[8:1],,,{8}3,
{16}2-6[8:1],,,6>3[8:1],,,{8}7,{16}8h[8:3],,,3,,,{8}4,
{16}1,2,3-8[16:1],4h[16:3],1,2,{8}3,{16}7-2[8:1],,,2-5[8:1],,,{8}5,
{16}4>1[8:1],,,1-5[8:1],,,{8}5,{16}6<1[8:1],,,1-5[8:1],,,{8}5,
4-1[8:1],{16}6,6,,5,{8}5,{16}1-4[8:1],,,4<7[8:1],,,{8}7,
{16}8-5[8:1],,,5>2[8:1],,,{8}2,{16}1h[8:3],,,6,,,{8}5,
{16}8,7,6-1[16:1],5h[16:3],8,7,{8}6,{16}2,,,2,3,7,{8}6,
{16}4,5,,3h[16:3],,6,{8}6,{16}8,7,,3/6>3[8:1],,,,,2,
1,,8-4[8:1],,7,{8}7,{16}7,6,,5-1[8:1],,4,{8}4,
{16}3,2,,4,,8,{8}8,{16}5,5,5,6/4,,7,{8}6,
{16}3,4,,2<7[8:1],,7,{8}7,{16}6,5,,7-3[8:1],,4,{8}4,
{16}6,6,,3,,8,3,7,2,6,1,5-8[8:1],,1,{8}1,
{16}2,2,,8,,3,8,2,7,1,6,8>3[8:1],,5,{8}5,
{16}6,6,,3h[8:1],,4,{8}3,{16}5,4,3,2-7[8:1],,5,{8}4,
{16}3,3,,7,,7,{8}7,{16}8,1,2,3,1b,8,7,6,
{1}5-1[16:25],
{2},,2h[2:1],
7h[2:1],
5h[2:1],3<6[8:1],
{16}4,4,,3,,3,{8}3/2,{16}5,5,,6,,6,{8}7/6,
{16}1,1,,8,,8,{8}8/7,{16}5,5,,4,,4,{8}4/3,
{16}2,2,,7,,7,{8}7/6,{16}8,8,,4,,4,{8}4/5,
{16}6,6,,1,,1,{8}1/8,{16}7,7,,2,,2,{8}3/2,
{16}4-7[8:1],,,7-2[8:1],,,{8}8,{16}8-5[8:1],,,5-2[8:1],,,{8}6,
{16}6-1[8:1],,,1-4[8:1],,,{8}2,{16}2-7[8:1],,,7-4[8:1],,,{8}6,
{16}5-1[8:1],,,1<6[8:1],,,{8}2,{16}3-7[8:1],,,7>2[8:1],,,{8}6,
{16}5,5h[16:5],,2,,2,{8}2-7[8:1],{16}4,4,,4h[16:3],,8,{8}8,
{16}1>4[8:1],,,4,{8}4,5,{16}6<1[8:1],,,1,{8}1,2,
{16}3<6[8:1],,,6,{8}6,7,{16}8<5[8:1],,,5,{8}5,4,
{16}3>8[8:1],,,8,{8}8,7,{16}6>3[8:1],,,3,{8}3,2,
{16}1-5[8:1],1,,5,,6,{8}6,{16}8,7,6,5,3,2,1,8,
5,5-8[8:1],,8,,2,{8}3,{16}2,2-7[8:1],,7,,5,{8}4,
{16}8,6,1,7,2,8,3,1,8,8,7,7,8,7,6,1/5,
2,2>5[8:1],,5,,8,{8}7,{16}6,6-2[8:1],,2,,3,{8}3,
{16}1,3,8,2,7,1,6,8,1,1,2,2,1,2,3,4/8,
7,7>2[8:1],,2,,4,{8}5,{16}3,3-6[8:1],,1,,7,{8}7,
{16}8,7,6,5,2,1,8,7,3,2,1,8,4,7,3,6,
1,1-4[8:1],,4,,6,{8}7,{16}8,8-3[8:1],,3,,2,{8}2,
{16}1,2,3,4,7,8,1,2,6,7,8,1,5,2,6,3,
5,5-1[8:1],,6/5,,,{8}8b,{16}7,6-3[8:1],2,3,,,{8}4b,
{16}8-3[8:1],7,,5,,,{8}4b,{16}3,4,5,6-1[8:1],,7,{8}7b,
{16}8,7,6,5-2[8:1],,,{8}2b,{16}3-8[8:1],4,,3,,,{8}1b,
{16}6-1[8:1],5,,6,,,{8}8b,{16}7,6,5,4h[16:3],,8,1,2-5[8:1],
5,5,,6,,6,7,8-4[8:1],4,4,,3,,3,2,1>4[8:1],
8,7,6,5,,7,6,5<8[8:1],4,3,2,1,,3,2,1,
7/8,7-4[8:1],,3,,2,{8}2,{16}6/5,5-1[8:1],,8,,7,{8}7,
{16}2,3,4,5,6,7,8,5/1-5[8:1],2/6,3/7,4/8,5/1b,
E
