&title=Random ("Take #8" Full Version)
&artist=Sobrem × Silentroom
&first=0
&des=魔女ナシ魔女アリ
&lv_7=奏
&inote_7=(132){1},{8},,,,,,,Chf[8:12],,
{8}8h[192:1],8h[64:1],8h[128:3],8h[32:1],8h[128:5],8h[64:3],
{8}8h[128:7],8h[16:1],8h[128:9],8h[96:7],8-5[52.9#1024:40],,,,,4/8,
{96},,,,,,,,,,,,3,,,,,,,,,,,,,,,,,,,,,,,,3,,,,,,,,,,,,,,,,,,,,,,,,3,,,,,,,,,,,,,,,,,,,,,,,,3,,,,,,,5/4,,,,,
{96},,,,,,,4-1[41#1024:31]/5-8[41#1024:31],,,,,6,,,,,,,,,,,,,,,,,,,,,,,,6,,,,,,,,,,,,,,,,,,,,,,,,6,,,,,,,,,,,,,,,,,,,,,,,,45,,,,,,,,,,,,
{96},,,,,,,,,,,,3,,,,,,,,,,,,,,,,,,,,,,,,2-4[26.4#1024:16],,,,,,,,,,,,,,,,,,,,,,,,5-1[44#1024:36],,,,,,,,,,,,,,,,,,,,,,,,8-6[12:1],,,,,,,,,,,,
{8},8,,5,,2,,8b<6b[13200#1:25],
{96},,,,,,,,,,,,5,,,,,,,,,,,,,,,,,,,,,,,,4b>2b[13200#1:25],,,,,,,,,,,,,,,,,,,,,,,,5,,,,,,,,,,,,,,,,,,,,,,,,8b<5b[13200#1:25],,,,,,,,,,,,
{8},4,,3b>8b[13200#1:25],,5,,7h[8:2],
{24},,,3b-5-2-6-1-7b[13200#1:62],,,,,,,,,,,,,,,,,,5bs1b[13200#1:29],,,
{8},,,2,3-1[58#128:5],4-8[8:1],5,4,{96},,,,,,,3,,,,,,,,,,,,,,,,,7,,,,,,,,,,,,
7,,,,,,,,,,,,6-8[58#128:5],,,,,,,,,,,,5-1[8:1],,,,,,,,,,,,4,,,,,,,,,,,,5,,,,,,,,,,,,
{96},,,,,,,6,,,,,,,,,,,,,,,,,3,,,,,,,,,,,,
3>8[66#128:16],,,,,,,,,,,,5/4q5[24#128:15],,,,,,,,,,,,
6q2[44#128:10],,,,,,,,,,,,,,,,,,,,,,,,3,,,,,,,,,,,,
{48},,,,,,,,,,,,,,,,,,6,,,,,,,,,,,,,,,,,,,,,,,,4`5,,,,,,
{8},,,,,,,1-5[37.6#512:16]/8-4[24#256:5],
{24}7b<6>5>4b[13200#1:12],,,,,,2b>3<4<5b[13200#1:12],,,,,,7b<6>5>4b[13200#1:12],,,,,,1,,,,,,
{48}6b>5>4>3b[13200#1:12],,,,,,,,,,,,8,,,,,,,,,,,,7,,,,,,37,,,,,,,,,,,,7b<5b[1000#32:20]/2,,,,,,
{48},,,,,,3b<5b[1000#32:20]/8,,,,,,,,,,,,8b<6b[1000#32:30]/2,,,,,,,,,,,,1b>2>3<4<5<6<7>8>1-3<4-6<7-1>2-4<5-7>8-2>3-5<6-8>1-4b[1000#1000:9200],,,,,,,,,,,,,,,,,,
{8},,,,,,,D5f,
{8},,,,,,,
{16}3h[32:94]/6h[32:94],,,,
,,,,
,,
{32}
,,,,
{4},,,
,,,,,,
{8},8h[8:1],7h[8:1],6h[8:1],5h[8:1],4h[8:1],3h[8:1],2h[8:1],1-5[32:4],
{96},,,,,,,,,,,,1b-3b[13200#1:12],,,,,,,,,,,,,,,,,,,,,,,,4-7[32:4],,,,,,,,,,,,,,,,,,,,,,,,4b-1b[13200#1:12],,,,,,,,,,,,,,,,,,,,,,,,8<5[32:4],,,,,,,,,,,,
{96},,,,,,,,,,,,8b>3b[13200#1:12],,,,,,,,,,,,,,,,,,,,,,,,2/4,,,,,,,,,,,,3,,,,,,,,,,,,7/5-7[12:1],,,,,,,,,,,,4,,,,,,,,,,,,3b-1b[13200#1:9]/5,,,,,,,,,,,,
{8},2/4-2[12:1],5,6b-8b[13200#1:9]/4,,7/5-8[8:1],6,5/4b-1b[13200#1:12],
{48},,,,,,27,,,,,,,,,,,,3h[8:1],,,,,,4h[8:1],,,,,,5h[8:1],,,,,,6h[8:1],,,,,,4b,3b,2hb[48:22],,,,
{48},,,,,,{8},,{48}5,6,7qq5[72#128:26],,,,,,,,,,,,,,,,,,,,,,7/3bpp5b[13200#1:37],,,,,,
{48},,,,,,,,,,,,,,,,,,4,3,2pp3[72#128:26],,,,,,,,,,,,,,,,,,,,,,2/6bqq5b[13200#1:37],,,,,,
{48},,,,,,,,,,,,,,,,,,6,7,8qq8[72#128:26],,,,,,,,,,,,,,,,,,,,,,8/4bqq4b[13200#1:38],,,,,,
{24},,,,,,,,,37,,,26,,,1h[8:1]/5h[8:1],,,,,,
{8}5p8[37.7#256:9]/1>4[66#16:1],,4q1[52.8#1024:51]/8<5[88#1024:86],,1,8,,45,,
{96}27,,,,,,,,,,,,4-2[12:1]/5-7[12:1],,,,,,,,,,,,,,,,,,,,,,,,45,,,,,,,,,,,,,,,,,,,,,,,,18,,,,,,,,,,,,,,,,,,,,,,,,
3b-5b[13200#1:9]/7-5[102.3#1024:70],,,,,,,,,,,,{96},,,,,,,,,,,,,,,,,,,7-4[66#1024:45],,,,,,,,,,,,2b-5b[13200#1:9],,,,,,,,,,,,,,,,,,,,,,,,,,,,,,,,,,,,7-3[66#1024:45],,,,,,,,,,,,1b-5b[13200#1:9],,,,,,,,,,,,,,,,,,,,,,,,,,,,,,,,,,,,7<5[77.6#2048:111],,,,,,,,,,,,8b-4b[13200#1:9],,,,,,,,,,,,,,,,,,,,,,,,,,,,,2b>4b[13200#1:9]`7qq8[16:19],,,,,,,,,,,,,,,,,,,,,,,,7`3bqq4b[13200#1:119],,,,,,,,,,,,
{1},
{16},,,,,,,,,,,A6,A5,A4,A3,,
{16},,,,,,,,,,,3qq4[8.19#1024:19],,,,E5,E6,E7,E8,E1,,A5,A6,A7,A8,A1,,4,5,6,7,8,
{96}1h[8:1],,,,,,,,,,,,,,,,,,2h[8:1]/8h[8:1],,,,,,,,,,,,,,,,,,1h[8:1],,,,,,,,,,,,,,,,,,46,,,,,,,,,,,,,,,,,,,,,,,,,,,,,28,,,,,,,,,,,,,
{16}1h[8:1],,,4h[8:1]/6h[8:1],,,1h[8:1]/8h[8:1],,,5h[16:1]/7h[16:1],,6,,4h[8:1]/5h[8:1],,,
{64}5h[8:1]/6h[8:1],,,,,,,,,,,,2h[8:1]/5h[8:1],,,,,,,,,,,,5h[8:1]/8h[8:1],,,,,,,,,,,,1/5<8[21.1#2048:25],,,,,,,,,,73,,,,,,,,,,,,,,,,,,
{8},,,,,,,4>1[12:1],
{96},,,,,,,,,,,,4b/5b,,D4/D6,,D3/D7,,D2/D8,,D1f,,,,,,,,,,,,,,,,,,,,,,,,,,,,36,,,,,,,,,,,,3/6,,,,,,,,,,,,,,,,,,,,,,,,
{8}7-3[33#32:1]/8-4[26.4#1024:26],,6/5,,4/3,,2-6[33#32:1]/1-5[44#1024:42],,7,,8,,1,,2,,5-8[52.9#1024:50]/7,,2/4-1[66#32:2],,36,5,4,,
8-4[37.7#1024:74],,7-3[29.3#1024:56],,6-2[37.7#1024:72],,5-1[264#4:2],58,,
{8},,76,,,,8h[8:4]/1,,
{8}6,4,2,7/A4f,3/E6f,8/B4f,1s5[24#1024:20]/Cf,,
{16},,5,2,4,3,6,4,5,3,7,4,6,5,
{96}8z4[48:5],,,,,,,,,,,,,,,,,,,,,,,,
1b/8b,,E1,,C,,E5f,,,,,,,,,,,,,,,,,,,,,,,,,,,,,,{8}27,27,,
5-8[18.86#1024:18]/4,,3/6-3[33#32:1],,2-7[66#16:1]/7,,1-4[44#128:5]/8,,2,,6,,1,,5,,4-8[52.9#1024:50]/2,,7/5-1[66#32:2],,63,4,5,,
2-8[44#1024:30],,37,,4/6-4[88#1024:60],,2-5[53#1024:52],6-1[88#1024:87],,
{128},,,,,,,,,,,,,,,,6,,,,,,,,,,,,,,,,2-6-2[88#1024:170],,,,,,,,,,,,,,,,,,,,,,,,,,,,,,,,,,,,,,,,,,,,,,,,2,,,,,,,,,,,,,,,,A6f,,,,,,,,,,,,,,,,,,,,,,,,,,,,,,,,
{8}5h[384:1],5h[192:1],5h[96:1],2h[64:1]/6h[64:1],2h[128:3]/6h[128:3],2h[32:1]/6h[32:1],2h[128:5]/6h[128:5],3h[64:3]/7h[64:3],
{8}3h[128:7]/7h[128:7],3h[16:1]/7h[16:1],3h[128:9]/7h[128:9],4h[96:7]/8h[96:7],4h[96:7]/8h[96:7],
4b/8b,,
||majo
A
{16}
8b<5b[13200#12:100]/4b>1b[13200#12:100],,,,2-7[52.8#20:1],,5h[16:1],4h[16:1],
6h[16:2],,1h[16:2],,5,,2/6b-3b[13200#8:100],
,,,{24}8,,,6-1[52.8#20:1],,6,{16}5,
{24}7,,,,2,3,4,5,,{16},6/5b-2b[13200#8:100],,
{16}
,,1x/2x,,3>8[48#22:1],4,2,,6,5,7h[16:2],,5,6,4,3/7b<4b[13200#8:100],,,{24}8x/4x,1x/5x,6x/2x,{16}7x/3xpp6[264#8:6],,3/7bpp2b[13200#8:300],,
{16}
,,,,,,,,8bv5b[13200#12:100]/4bv1b[13200#12:100],,,,3<7[52.8#300:20],3,5h[16:2],,
2,2,4h[16:2],,1,1,3bV57b[13200#8:150],,,,,2,2,5,4,7,
{16},7,4,5,1b-3-5-7b[13200#8:250],,7bpp4b[13200#8:250],,,,,,2b-5b[13200#8:100],,6b-1b[13200#8:100],,,,
{24}3bq5b[13200#8:950],2,1,8,7,6,3b,2,1,8,7,6,3b,2,1,8,7,6,3b,2,1,8,7,6,
{16}
3b,,,,,,7bqq5b[13200#8:100]/3bqq1b[13200#8:100],,,,
2pp7[52.8#200:30],8h[16:1],3h[16:1],7h[16:1],4h[16:1],6h[16:1],3,,,,2/6b-1b[13200#8:100],,,,,,,,8<4[66#16:1],,1h[16:2],,
{16}2h[16:2],,3,,8/4b>8b[13200#8:100],,,,6-2[44#24:1],6,5,5,8,8,2,2,8,8,5,5,6b-2b[13200#8:100],,,,{24}4-8[8:1],5,6,7,8,1,{16}4/2b-6b[13200#8:100],,,,
7h[16:1],5h[16:1],6h[16:1],4h[16:1],5h[16:4],,,,1b-5b[13200#8:80],,6b-2b[13200#8:80],,3b-7b[13200#8:80],,
8b-4b[13200#8:80],,5b-1b[13200#8:80],,7b-3b[13200#8:80],,2bqq6b[13200#8:260],,,,,,,,{24}8h,7,6,2h,3,4,
6h,5,4,3h,4,5,{16}8b<3b[13200#8:150],,,,,,1/2-7[264#4:1],,2/1b-4b[13200#8:100],,,,6v8[8:1],,,,
6/2bv8b[13200#8:100],,,,3b-8b[13200#8:100]/5b-8b[13200#8:100],,,,2bv4b[13200#8:100]/6bv4b[13200#8:100],,,,
1b-4b[13200#8:100]/7b-4b[13200#8:100],,,,8b-5-7b[13200#8:150]*-2b[13200#8:70],,,,
||majo
B
{8},
{64},,,,18,2/7,3/6,4/5,{8},{16},6h[48:49]/5h[48:49],
{24}3,4,3,4,3,4,3,4,
{24}3,4,3,4,3,4,3,4,
{24}3,4,3,4,3,
{24}4>1[399#8:4],3,4,,,,{16},,2/5,3/6,4/7h[8:3],,
{24}4,3,2,1,2,3,4,5,6,
{8}7,7/6,7/6/5,{64},7,6,5,{16}4,,
{96}1,,,,,,4,,,,,,2,,,,,,7,,,,,,5,,,,,,6,,,,,,4,,,,,,8,,,,,,5,,,,,,7,,,,6,,,,5,,,,1,,,,,,,4,,,,,3h[96:12],,,,,,,5h[96:5],,,,,,,,,,,,,,,,,
{24}2,4,3,6,5,7,3,5h[12:1],,2,4,3,6,5,7,3,5h[12:1],,2,4,3,6,5,7,3,5h[12:1],,
{24}2,4,3,6,5,7,3,5,1,4,3,7,5,8,2,
{32}6b,5,4,3,2,1,8,7,6,5,4,3,2b,,,,
2b,3,4,5,6,7,8,1,2b/7b,6,5,4,3,2,1,8,7b/E5f,6,5,4,3,2,1,8,7b/Cf,6,5,4,3,2,1,8,7b/E5f,6,5,4,3,2,1,8,7bpp8pp2b[13200#1:32]/A2f,,,,,,,,{8},
{16}4hb[4:1],,,,2-5-3[32:5],5,,1,2,,8,,7-4-6[32:5],4,,3,7,,2,2-5-1[165#32:7],,5,2,,6h[16:5],,,2h[16:2],,,
{64}37,,,,8h[64:9]/4,,,,,,,,
{64},5h[64:4],,,,7h[64:4],,,,1h[64:4],,,,4h[64:3],,,3h[64:3],,,5h[64:3],,,4h[64:3],,,6,,5,,6,,
3,,4,,3,,7h[192:37],,,,,,,
{96},,,,,,,,8,,,,1,,,,2,,,,3,,,,
{16}4b-1b[13200#1:14]/7,,6,,5b-8b[13200#1:14]/2,,3,,4/7b-4b[13200#1:13],,3b-7b[13200#1:14],,8b-3b[13200#1:13],,2b-8-6-4>5p2b[13200#1:85],,,,,
{48}8b,7b,6b,5b,,,
{16},,,,,,,,,
{96}6,,,,5,,,,4,,,,{96}8,,,,7,,,,6,,,,2,,,,1,,,,8,,,,4h[96:7],,,,,,,6,,,,,5h[96:7],,,,,,,3,,,,,4h[96:7],,,,,,,8,,,,,6h[96:7],,,,,,,1,,,,,
3h[96:7],,,,,,,E1,,,,,{8}Cf,,
{8}Chf[384:1]/B3/B7,Chf[384:1]/B4/B8,Chf[384:1]/B1/B5,Chf[384:1]/B2/B6,
Chf[192:1]/B3/B7/E4/E8,Chf[192:1]/B4/B8/E1/E5,Chf[192:1]/B1/B5/E2/E6,Chf[192:1]/B2/B6/E3/E7,
Chf[96:1]/B3/B7/E4/E8/A8/A4,Chf[96:1]/B4/B8/E1/E5/A1/A5,Chf[96:1]/B1/B5/E2/E6/A2/A6,Chf[96:1]/B2/B6/E3/E7/A3/A7,
Chf[48:1]/B3/B7/E4/E8/A8/A4/D1/D5,Chf[48:1]/B4/B8/E1/E5/A1/A5/D2/D6,Chf[48:1]/B1/B5/E2/E6/A2/A6/D3/D7,Chf[48:1]/B2/B6/E3/E7/A3/A7/D4/D8,
Chf[24:1]/B3/B7/E4/E8/A8/A4/D1/D5/B8/B4,Chf[24:1]/B4/B8/E1/E5/A1/A5/D2/D6/B1/B5,Chf[24:1]/B1/B5/E2/E6/A2/A6/D3/D7/B2/B6,Chf[24:1]/B2/B6/E3/E7/A3/A7/D4/D8/B3/B7,
Chf[16:1]/B3/B7/E4/E8/A8/A4/D1/D5/B8/E1/B4/E5,Chf[16:1]/B4/B8/E1/E5/A1/A5/D2/D6/B1/E2/B5/E6,Chf[16:1]/B1/B5/E2/E6/A2/A6/D3/D7/B2/E3/B6/E7,
||majo
C
{4},,,,
3h[8:8],E5,,E5,6h[8:6],E5,,Cf,
{24}4,5,4,5,4,5,3,6,3,6,3,6,2,7,2,6,2,5,1,8,1,7,1,6,2,3,4,5,6,7,2,3,4,5,6,7,1/8w4[12:1],,,,,,8`Cf,,,,,,
{4}1-6[37.7#1024:37]/2-5[26.5#1024:25],8-3[29.3#1024:29]/7-4[66#16:1],45,{8}7,1,,,2,
{8}8,,45,,1h[8:4]/8,,
{8}3,5,7,2/A5f,6/E4f,1/B5f,8z4[24#1024:20]/Cf,,
{16},,4,7,5,6,3,5,4,6,2,5,3,4,
{96}1s5[48:5],,,,,,,,,,,,,,,,,,,,,,,,
8b/1b,,E1,,C,,E5f,,,,,,,,,,,,,,,,,,,,,,,,,,,,,,{8}27,27,,
3-8[18.86#1024:18]/4,,1/2-5[33#32:1],,7-4[33#32:1]/8,,6-1[8:1]/5,,6,,2,,7,,3,,5-1[52.9#1024:50]/7,,2/4-8[66#32:2],,36,5,4,,
7-2[44#1024:30],,62,,5/3-6[88#1024:60],,7-4[53#1024:52],3-8[88#1024:87],,
{128},,,,,,,,,,,,,,,,3,,,,,,,,,,,,,,,,7-3-7[88#1024:170],,,,,,,,,,,,,,,,,,,,,,,,,,,,,,,,,,,,,,,,,,,,,,,,7,,,,,,,,,,,,,,,,A3f,,,,,,,,,,,,,,,,,,,,,,,,,,,,,,,,
{8}3h[384:1],3h[192:1],3h[96:1],4h[64:1]/3h[64:1],4h[128:3]/3h[128:3],4h[32:1]/3h[32:1],4h[128:5]/3h[128:5],3h[64:3]/4h[64:3]/5h[64:3],
{8}4h[128:7]/3h[128:7]/5h[128:7],3h[16:1]/4h[16:1]/5h[16:1],
3h[128:9]/4h[128:9]/5h[128:9],6h[96:7]/5h[96:7]/4h[96:7]/3h[96:7],6h[96:7]/5h[96:7]/4h[96:7]/3h[96:7],
6b/5b/4b/3b,,
||majo
D
{384}2x`3x,8?-4[4.5450##0.2273],8?-5[4.0905##0.2273]*?-5[4.0905##0.2273],8?-6b[3.6360##0.2273],,,{64},{32},{16},{8},
{16}2x/3x,,,,
2$x`3$x,,,,
2x/3x,,,,
{4}2x`3x,2x/3x,2$x`3$x,,
{384}8b,,,{128},{64},{32},{16},{8},
{384}8b,8?-6b[1.3635##0.2273],,{128},{64},{32},{16},{8},
{384}8b,8?-5[0.4545##0.2273]*?-5[0.4545##0.2273],,{128},{64},{32},{16},{8},
{384}8b,8?-4[1.3635##0.2273],,{128},{64},{32},{16},{8},
{384}8b,8?-5[0.4545##0.2273]*?-5[0.4545##0.2273],,{128},{64},{32},{16},{8},
{384}8b,,,{128},{64},{32},{16},{8},
{384}8b,,,{128},{64},{32},{16},{8},
{8},,
{384}1$x`7$x,4?-2[3.6360##0.2273],4?-6[5.4540##0.2273]*?-6[5.4540##0.2273],4?-8b[4.0905##0.2273],,,{64},{32},{16},{8},
{16}1x`7x,,,,
1$x`7$x,,,,
1x`7x,,,,
{4}1x/7x,1$x`7$x,1x`7x,,
{384}4b,,,{128},{64},{32},{16},{8},
{384}4b,4?-2[0.4545##0.2273],,{128},{64},{32},{16},{8},
{384}4b,4?-8b[0.4545##0.2273],,{128},{64},{32},{16},{8},
{384}4b,4?-2[0.9090##0.2273],,{128},{64},{32},{16},{8},
{384}4b,4?-8b[0.9090##0.2273],,{128},{64},{32},{16},{8},
{384}4b,,,{128},{64},{32},{16},{8},
{384}4b,,,{128},{64},{32},{16},{8},
{8},,
{384}4x/8x,6?v1[4.0905##0.2273],6?>3[3.6360##0.2273]*?>3[3.6360##0.2273],6?p2b[4.9995##0.2273],,,{64},{32},{16},{8},
{16}4$x`8$x,,,,
4x/8x,,,,
4x`8x,,,,
{4}4$x`8$x,4x/8x,4x`8x,,
{384}6b,,,{128},{64},{32},{16},{8},
{384}6b,6?>3[0.4545##0.2273]*?>3[0.4545##0.2273],,{128},{64},{32},{16},{8},
{384}6b,6?v1[0.9090##0.2273],,{128},{64},{32},{16},{8},
{384}6b,6?>3[0.9090##0.2273]*?>3[0.9090##0.2273],,{128},{64},{32},{16},{8},
{384}6b,6?p2b[0.9090##0.2273],,{128},{64},{32},{16},{8},
{384}6b,,,{128},{64},{32},{16},{8},
{384}6b,,,{128},{64},{32},{16},{8},
{8},,
{8}2/8,3/4,1/7,5/6,
3/8,1/5,4/7-3[8:1],2h[8:1]/6,
{8},1p5[8:1]*<6b[8:1],2/4,,,3/7,1-5[8:1],{24}5,,,
{8},,7,7,7/3,7/3,7/3,7/3,
{8}7/3/E8,7/3/E8,7/3/E8,7/3/E8,7/3/E8/E3,7/3/E8/E3,7/3/E8/E3,7/3/E8/E3,
{8}7/3/E8/E3/E7,7/3/E8/E3/E7,7/3/E8/E3/E7,7/3/E8/E3/E7,7/3/E8/E3/E7/E4,7/3/E8/E3/E7/E4,7/3/E8/E3/E7/E4,7/3/E8/E3/E7/E4,
{4},,
{96},,,,,A6`8?-5b[62#1024:30]`1?-4b[63#1024:30],,,D6,,,A5,,,A4,,,D4,,,A3,,,,,,,,,,,,,,,,,,,,,,,,,,,,,,,,,,,,,{4}8b/1b,,,,
