&title=PRANA+REVOLUTIONARY ADDICT (U1 DJ Mix)
&artist=TAG/浅见祐一
&first=0.9699994
&lv_5=14+
&des=flawi
&inote_5=
(190){32}1x/8x,7x/2x,6x/3x,5xV31<5s1b[32:109]`4xV68>4z8[32:109],{1},,,{4},,,{16},,{8}6,
3,5x/B2/E3,4,6,5,3x/B7/B8,2,
8,1,7,2,6,3,5,4,
{16}5x,4,5,4,6x,4,5,4,7x,3,6,4,8x,3,6,4,
{4}8bw4b[8:1],8b,{16}6b/2b,,,1b/5b,,,{8}7b/3b,
2bx/6bx<1b[16:3],{16}5,1-5[16:3],{8}6,2,3,4,6x,7/4,
5/2V48[4:1],{16}1,6,{8}2,7,5x,6,7x/1x,2,
3x/5V71[4:1],{16}4,2,{8}5,3,4x,8,7x/3x,6,
5h[16:1]/3h[16:1],5h[16:1]/3h[16:1],4h[16:1]/6h[16:1],6h[16:1]/4h[16:1],7h[16:1]/3h[16:1],7h[16:1]/3h[16:1],8h[16:1]/4h[16:1],8h[16:1]/4h[16:1],
4b/8bx<4b[16:3],{16}7,4-7[8:1],{8}8,3,2x,1,3x/8x,7,
6/3x-8-2[4:1],{16}4,5,{8}3,6,7x,6,2x/5x,3,
4x/6x-1-5b[4:1],{16}5,3,{8}6,4,3x,2,6x/1x,3,
5x,{16}3x,4x,3x,4x,3x,4x,{32}3bx,2,1,8,7,6,5,4,{8}3/7b,8b,
2/1bh[4:1],3,4,5h[4:1],6,7,8h[4:1],1,
2,3h[4:1],4,5,4/6,6,5/7,7,
8h[4:1],1,2,3h[4:1],4,5,6h[4:1],7,
8,6/1,1/6,7/2,8/1,7/2,6/3,5/4,
4/5h[4:1],4,3,2h[4:1],1,8,7h[4:1],6,
5,4h[4:1],5,6,7/5,8,7/3,5/6h[4:1],
4,3,2h[4:1],1,8,7h[4:1],6,5,
4/6,6/4,5/3,3/5,{16}4b,5,4,5,4,5,4,5,
{8}4b,6/2,{16}3,5,{8}4,7/5,{16}8,7,{8}6,3/4,
5/2,{16}3,6,4,5,{8}3,{16}5,4,6,2,8,3,7,4,
6b,5,7,3,6,4,{8}5,3/6,{16}2,5,4,6,{8}3,
{16}7x,6,2x,3,7x,6,2x,3,8x,7,1x,2,6x,5,2x,3,
{8}4bx/6bx,{16}8x,7,6/5,4,{8}3,{16}6,3,7,4,6,2,5,3,
{8}4b,{16}1x,2,3/4,5,{8}6,{16}3,7,3,7,2,6,2,6,
{8}2bx,6x,5/1,5/1,2/6,2/6,3/7,7/3,
{16}8bx,4,8,4,8b,4,8,4,8b,4,8b,4,8b-4b[8:1],4,8b,4,
{4}8b,{8}3,6,6h[4:1],4,,3,
5x,{16}3,6,{32}4x,3x,2x,1x,{8}7b,{16}8,1,7,2,6,3,5,4,
{4}5b-7[8:1],{8}5,1,{16}8x,8,8,8,8,8,8,8,
{8}8bx,{16}7,1,{8}6x,5x/2,{16}4,3,5,3,{32}6x,7x,8x,1x,2x,3x,4x,5x,
{8}6bx/2b,{16}3,5,{8}4,6,2V48[4:1],5,2,6,
7b,{16}1,6,{8}1,5/2,3/7V51[4:1],4,7,2,
3b,{16}8,2,{8}8,6/3,7b,{16}5,3,{8}6,2b,
,8b/4b,,6b/2b,,5b/1b,2b/6b,3b/7b,
{4}4b/8bw4b[8:1],8b`Cf,{8}2V84[4:1],5,2,6,
7,{16}5,3,6,4,,7/5,,6/4,,3,5,2,7,4,
{4}6-8-5[4:1],{8}6x,3,2,3,4x/6x,{16}7,2x,
{8}5x/3,{16}4,4,,5/3,,6,4x,3,2,1,4,5,6,7,
{4}8x-4-8[4:1],{8}8,2,1,3,8x/4x,7,
6x/3<4-1[4:1],{16}4,7,3,5,,7,,6,,5,1,2,3,4,
{8}6bx/5bx,4,5/6,7,6/4,3,2/5,6,
1b/7b,1/7,2/6,2/6,3/5,3/5,6/4,4/6,
{16}5b/7b-4[16:1],,,3b,,,{8}1b-5b[16:1],{16},6b,,,{8}8b,8b,
{16}8b-6[16:1],,,8b/2b-4b[16:1],,,{8}5b-1[16:1],{16},5b,,,{8}2b,2b,
{16}2b-5[16:1],,,2b/8b-4b[16:1],,,{8}8b/6b-3[16:1],{16},6b,,,{8}1b,1b,
6b/2b,{16}5,4,{8}7b,{16}3,6,2b,5,4,6,1b,5,2,4,
3b-5[16:1],,,3b/6b-2b[16:1],,,{8}6b/1b-7[16:1],{16},1b,,,{8}4b,4b,
{16}4b-7[16:1],,,4b/1b-3b[16:1],,,{8}1b/8b-5[16:1],{16},8b/4b,,,{8}4b,3b,
{16}2b-6[16:1],,,2b/4b-8b[16:1],,,{8}4b/7b-5[16:1],{16},7b/1b,,,{8}8bx/4bx,6bx/2bx,
{16}1x,5,2,6,3,7,4,8,3,7,2,6,1,2,3,4,
{8}5x/6h[4:1],5,{16},5,,4,{8}6,{16}3,5,,2,{8}4h[4:1],
,3,{16}4,2,,5,{8}3,{16}6,4,,5,3,6,
,5,{8}4,{16}5,3,,4,{8}2,{16}5,3,6,3,7,4,
{8}8x,8x,7x/3x,7x/3x,6x/2x,2x/6x,5x/1x,5x/1x,
6x/2,{16}2,5,4,5,3,6,5,6,3,6,4,5,{8}4h[8:1],
{16},,3,4,3,6,4,5,4,7,5,6,5,7,{8}4h[8:1],
{32}A8,D8,A7,D7,A6,D6,A5,D5,A4,D4,A3,D3,A2,D2,A1,D1,A8,D8,A7,D7,A6,D6,A5,D5,A4,D4,A3,D3,A2,D2,A1,D1,
{16}8x,4,8,3,8,2,8,1,6x,4,7,3,6x,2,7,3,
8bx,4,7,3,6,2,7,3,8,7,6,5,1,2,3,4,
7,4,7,4,6,3,6,3,5x,6,7,8,3b,7b,2b,6b,
1,5,1,5,2,6,2,7,1x,2,3,4,1x,8,7,6,
4bx,5,4,5,3b,5,4,5,2b,4,3,5,1b,5,3,6,
4,5,3,6,4,5,3,6,4x,3,2,1,5x,6,7,8,
2x,8,2,8,1,8,1,8,1x,2,3,4,1x,2,3,4,
2x,5,2,5,3,6,3,6,4x,3,2,1,5x,6,7,8,
2b,3,4,5,8b,7,6,5,{32}1b,2,3,4,5,6,7,8,{4}1b/5b,
{8}6h[8:7],E1,,E2,,E3,,E4,
4h[8:7],E1,,E8,,E7,,E6,
5b/4b,5/4,6b/3b,6/3,7b/2b,7/2,8b/1b,8/1,
{32}1,2,3,4,5,6,7,8,1,2,3,4,5,6,7,8,{64}1,D2,2,D3,3,D4,4,D5,5,D6,6,D7,7,D8,8,D1,{4}1bx/5bx,
{16}8,1>4[8:1],{8}8,{16}1,1,,7x,,5x,,6,3,5,{8}2,
{16}1,7-5[8:1],{8}1,{16}7,7,,3x,,4x/2x,,3,6,4,{8}5,
{16}7,5-2[8:1],{8}8,{16}5,5,,6,,7/1,,6,2,5,{8}3,
{16}4x,4x,4x,4x,4x,4x,,5/3,,6,4,6,4,5,3,5,
2x,4,3,5,{8}2-8[8:1],{16}4,6,{8}2b,{16}5,5,{8}2-4b[8:1],{16}4,6,
{8}2b,{16}7,7,{8}2-8[8:1],{16}3,5,{8}2b,{16}4,4,{8}2-4b[8:1],{16}6,6,
{8}2b-8[8:1],{16}6,6,{8}2b-5b[8:1],{16}6,6,{8}2b-7[8:1],{16}6,6,{8}2b,{16}6,6,
2b,3,4,5,6,7,8,1,2/6,5,4,3,2,1,8,7,
{8}6b/2V41[4:1],{16}3,5,2,6,,5,,7,,3,1x,8,7,6,
{8}5-8<6b[4:1],{16}4,2,5,3,,2,,4,,6,1,5,2,4,
{8}3x-1-5[4:1],{16}5,5,3,6,,7,,8,,4,1,8,7,6,
5/1b,2,3,4,8b,7,6,5,2b,3,4,5,7b,6,5,4,
{8}Cf,{16}4,2,5,3h[8:1],,6,,7/4,,7,4,6,3,5,
{8}B2f,{16}6,4,5,3,,6h[8:1],,4,,4,6,3,7,2,
8b,7,6/1b,2,3/7b,6,5/2b,3,4/8b,7,6/1b,2,3/7b,6,5/2b,3,
{24}4/8,7,6,5,4,3,2/6,1,8,7,6,5/8,4,3,2,1,8,7,6/2,5,4,3,2,1,
{1}8bx/Cf,
E
