&title=あだぽしゃ
&artist=いよわ; 初音ミク
&first=0
&des=私たちの有り様
&lv_5=13+
&inote_5=(107){4},{8},{24}7,,4,{8}7x-2-6-1[8:3],7,4,3,
3,{24}2,,8,{8}2x-8-3-7[8:3],2,5,6,7,8x<5[8:1],
2,3,4x>1[8:1],6,7,6xpp4[8:3],3,2,
2h[4:1],{4},{8}3/5,3,3,{24}3x/B4,B5,B6,2x/B7,{12},{8}1x,
3/6,3,3,{24}3x/E5,E6,E7,2x/E8,{12},{8}1x,3/7,
3,3,{24}3x/A5,A6,A7,2x/A8,{12},{8}1x,8bpp3[8:3]/6b<3[8:3],,,,,,{24}5h[12:1],
,4,{12},{24}5h[8:1],4,{12},{8}6h[8:1],7h[8:1],
8h[8:1],{24}6h[12:1],,5,{12},{24}6h[8:1],5,{12},{8}7h[8:1],8h[8:1],1h[8:1],{24}7h[12:1],,6,
{12},{24}7h[8:1],6,{12},{8}8h[8:1],1h[8:1],2h[8:1],3,4q5[4:1],5,
6h[4:1],{4},{24}4h[12:1],,5,{12},{24}4,5,,4,{8}3h[8:1],2h[8:1],
1h[8:1],{24}3h[12:1],,4,{12},{24}3,4,,3,{8}2h[8:1],1h[8:1],8h[8:1],{24}2h[12:1],,3,
{12},{24}2,3,,2,{8}1h[8:1],8h[8:1],7h[8:1],6,{12},{6}24,
{24}1,8,1,8,{12},{8}3/6,{24}2,,2,{8}4,3/2h[8:1],{12}7,{24}7,1,{12},{8}8/7h[8:1],
{24}5,,5,{8}8,7/5h[8:1],{12}3,{24}3,2,{12},{8}2/3h[8:1],{24}1,,1,
{8}5,4/1h[8:1],{12}6,{24}6,7,{12},{8}7/6h[8:1],5,4q7[4:1],3,
2,{4},{24}2,,4,{12}1,{24}8,5h[8:1],{12},7,{24}1,6,,6,
{8}2h[8:1],{24}4,,3,{12}8,{24}8,4h[8:1],{12},6,{24}7,5,,5,{8}8h[8:1],{24}5,,6,
{12}1,{24}1,3h[8:1],{12},2,{24}8,3,,3,{8}5h[8:1],8,1>7[8:3],2,
{2}4h[4:1],{8}2x/6x,2x/6x,{12}2bx/6bx,{24}7,8-4[8:1],,5,
{8}4-1[8:1],3,{4}2h[8:1],{12}1/6,{24}7,8-4[8:1],,5,{8}4p6[16:3],3,
3>7b[4:1],2,3,6q3b[4:1],5,6,4qq5[8:3]*>5[8:3],5,
4,{2},{8}4/6,7-4[8:1],1/6,
7,2-6[8:1],3/5-1-7-3b[8:3],2,5,3>5b[4:1],2,1h[4:1],
{4},{8}4/7<4[8:1],5,3,2<6pp3[16:7],1/8,2,
5h[4:1],{4},{24}4x,4x,4x,{8}4x,{24}3<3b[4:3],5,2,{4}4h[8:3],
,{8}C,3<2b[8:5],{2}4h[8:3],
{8}C,3,{12}4,{24}4,3,,5,{8},4/6,{12}5,{24}6,5,,7h[6:1],
{8},{24}6,,6,{12}5,{24}5,4,,4,{8}3,2/4,{12}5,{24}3,4,{12},{8}1/5,
{24}5/3,6,7,{8}8h[8:1],1h[8:1],{12}2,{24}5,4,{12},{8}7/4,{24}2/6,7,8,
{8}1h[8:1],2h[8:1],{12}4,{24}6,5,{12},{8}8/4,{24}3x/6,2x,1x,8x,7x,6x,5x,4x,3x,
{8}2xh[8:3]/Ch[8:3],{2},{24}4,5,4h[24:31],{8},E5,
B5,B6,E7,A7,D8,A8,E1,B1,
B2,E3,{12}5/2-6[8:1],{24}3,4q5[4:1],{12},{8}2,4,8,2,
{12}4/7-3[8:1],{24}6,5pp4>1[8:3],{12},{8}7,5,1,7,5-1[8:1],2/4,
3,4-7[8:1],5/7,6,5,6/8<2[4:1],1,8/4h[4:1],
{4},{8}1h[24:5],{24}2,,3h[8:1],{12},{24}4,5x,6x,7x,{8}8xh[8:1],1h[8:1],
2h[24:5],{24}3,,4h[8:1],{12},{24}5,6x,7x,8x,{8}1xh[8:1],2h[8:1],3h[24:5],{24}4,,5h[8:1],
{12},{24}6,7x,8x,1x,{8}2xqq7[8:3],4/5,2b,{4},{24}A6,E6,E4,
{8}A3,4/5,{24}8x,2,1,3,1,2,8,1,7,1x,7,8,6,8,7,1,8,2,
8x,2,1,3<4v5<6b[4:1],1,2,8,1,7,1xh[4:1],{3},{24}4x,6,5,7,5,6,
4,5,3,5x,3,4,2,4,3,5,4,6,4x,6,5,7>3p6b[8:3],5,6,4,5,3,5xh[4:1],{3},{8}5,
4/2h[8:1],1,8/7h[8:1],6<1[8:1],5,
4/6,3-6[8:1],2,1/3,8,7,{24}8x/5x,{6},{24}3x/6xp1[6:1],
{8},4x/1xp4[6:1],3,2,{24}1x,{6},{24}7x/2x>5[6:1],{8},8x/5x<7[9:1],
{4},{12}1,{24}1,4,,4,{8}3h[12:1],{24}6,,6,{12}7,{24}7,6h[12:1],{12},5,
{24}5,8,,8,{8}4h[12:1],{24}2,,2,{12}3,{24}3,2h[12:1],{12},1,{24}1,8,,8,
{8}5h[12:1],{24}6,,6,{12}8,{24}8,4h[12:1],{12},{8}2>5b[8:1],5s1b[4:1],7,8h[4:1],
{4},{12}6,{24}6,4,,4,{8}1h[12:1],{24}3,,3,{12}8,{24}8,4h[12:1],{12},5,
{24}5,8,,8,{8}7h[12:1],{24}1,,1,{12}8,{24}8,3h[12:1],{12},2,{24}2,1,,1,
{8}8h[12:1],{24}5,,5,6,4,6,4h[12:1],{12},{8}7<4b[8:1],4>7b[4:1],2,1h[4:1],
{4},{16}6x/2x,6x/2x,6x/2x,6x/2x,6x/2x,6x/2x,{24}2bx/6bx,,7,{12}8p4[8:1],{24}5,4p8[8:1],{12},{8}3,
2h[8:1],,{24}1/6,,7,{12}8p4[8:1],{24}5,4pp6[8:1],{12},{8}3,2qq3b[16:5],
1,2x/5,6pp5[16:5],7,6x/4,3>4b[8:3]*<2[8:3],2,3x,
{2},{8}5/3,2-6[8:1],4/1,2,
7<4[8:1],5/8-2-4-6b[8:3],7,8b,6V82b[4:1],7,{4}8h[4:1],
{8},4/7<4[8:1],5,3,2<6p4[16:7],1/8,2,5h[4:1],
{4},{24}A7,B7,B2,A2,{12},{8}1bx/8bx,{24}3/7,,2,{12}1p4[8:1],{24}3x,4x>1[8:1],{12},{8}6,
7h[8:1],,{24}1/6,,7,{12}8q5b[8:1],{24}6x,5x<8b[8:1],{12},{8}3,2qq3[16:5],
1,2x/7,6qq7b[16:5],5,6x/3,1<2b[8:3]*>8[8:3],2,1x,
{2},{8}4/6,7-3[8:1],5/8,7,
2-5[8:1],4/1V74[8:2],2,1b,4>6b[8:2],3,{4}2h[4:1],
{8},5/2>5[8:1],4,6,7>3qq5[16:7],8/1,7,4h[4:1],
{4},{24}A3,E4,E6,A6,{12},{8}1x/8x,7qq5qq3[8:48]/A2,
{1},,,,,,
{4},
{16}3h[24:5],4h[48:9],,,,,5h[8:1],,6h[8:1],,,,
{16}2h[24:5],4h[48:9],,,,,1h[8:1],,7h[8:1],,,,
{16}5/6h[16:4],,,,4,,3h[16:4],,4h[8:1],,,,
{24}6h[24:5],,5h[24:4],,,,,,,{16}7h[8:2],,1,,3,,
{16}3h[16:5]/4h[16:3],,,,,,5,,7h[8:1],,1,,
{16}4h[16:5]/5h[16:3],,,,,,6,,8h[8:1],,2,,
{8}56,57,58,51,5h[8:1]/1h[8:1],,{16}26,,,2/6,,,37,,48,,1/5,,
{8}3/7-2b[16:3],,,4h[8:1],{24}3,4,5,6,,,
{12}2b/7b,
{24}3,4q8[8:1],,1,
{8}8q5[8:1],5,6,7,{12}4/8,{24}6,5p1[8:1],,8,{8}1p4[8:1],4,
3qq6[16:5],2,3x/5,7pp4b[16:5],8,7x/5,4>5b[8:3]*<3[8:3],3,
4x,{2},{8}8/1,6/2-5[8:1],8/1,
2,7-2[8:1],8/4>5[8:3],7,4b,5p2[4:1],6,7h[4:1],
{4},{8}6/1-5[8:1],7,8V26[16:3],7,4qq4[8:2]*pp5[8:2],3,
4,,,{24}E3,B3,B6,{8}E7,1bx/8bx,{12}7/3,{24}6,5p1[8:1],,8,
{8}1<6[16:2],4,3,2,{12}1,{24}3,4q8[8:1],,1,
{8}8>3[16:2],5,
{8}6,7,1>3[8:1],4p8[8:1],1,7<5[8:1],4q8[8:1],7,1pp8[8:2]*>7[8:2],
{2},{8}1/8,3/7-4[8:1],1/8,
7,2-7[8:1],1/5<4[8:3],2,5b,4pp1[4:1],3,2h[4:1],
{4},{8}3/8p4[8:1],{24}2,,1x,{8}8x,2q6b[16:3],4,6<4b[4:1],
7,8,,{24}E7,B6,B3,{8}E3,8x/1x,{12}7x,{24}5h[8:1],6h[8:1],,,,,,3x,
,5h[8:1],{4}4h[8:1],{12}7x,{24}3h[8:1],5h[8:1],,,,,,{48}3x,6x,4xh[48:7],5xh[16:3],{24},,,,,,,{4}3xh[8:1]/4xh[16:3],
{8}3,4xh[8:1]/5xh[16:3],,4,
{24}7-1[8:1],6,5,4-8b[16:1],3,2,1,,,4b,
E
