&title=勾指起誓
&artist=【翻唱 ▪ 泠鳶yousa】 ilem&洛天依
&first=-0.01
&des=Jitjinsu
&lv_5=13
&inote_5=(85)
{4},2^5p8[2:1],,,,6^1p4[2:1],,,,4-8^1p5[2:1]*-8^7q3[2:1],,,{8},4bw8b[4:3],,,,,,,,,
{4}3^6[8:1],3-1[12:1],6^3[8:1],6-8[12:1],3V15[6:1],6V84[6:1],3p7q3[4:1],,
{4}5-7[12:1],5-3[12:1],5pp1^6b[8:7],{8}5,1h[4:3],,,,,,,
{4}3V57[5:1],,8V64[6:1],,2-4[12:1],2-8[12:1],6-2-8[6:1]/2,,5V31[6:1],,4V68[6:1],,2p4[6:1],1<5[6:1],4q2[6:1]*p6[6:1],,
{4}6V42[5:1],,1V35[6:1],,7-1[12:1],7-5[12:1],3-7-5[6:1]/7,,{8}8-6[12:1],8-4[8:1],,,5-3[12:1],5-1[8:1],,,
{4}2-6[8:1],2^4[12:1]/6^8[12:1],2pp5[4:1]/6,,
{4}6b-1[8:1],6-4[12:1]/2-5[12:1],2-8[12:1],2-4[12:1]/6-3[12:1],6<2[4:1],2q3[4:1],3<2[4:1],,
{4}3b-8[8:1],3-5[12:1]/7-4[12:1],7-1[12:1],7-5[12:1]/3-6[12:1],3>7[4:1],7p5[4:1],5q7[4:1],,
{4}8b-3[8:1],8-6[12:1]/4-7[12:1],8-2[12:1],8-5[12:1]/4-6[12:1],4-2[12:1],{8}1^4[8:1],8^5[8:1],1-6-3-8b[4:1],,,,
{4}4b-7[8:1],4-2[12:1]/8-3[12:1],4-6[12:1],4-1[12:1]/8-2[12:1],8<4[4:1],{8}4^2[8:1],2^8[8:1],8pp5^7b[2:1],,,,,,
{8}1-3[12:1],8-4[12:1],1-5[12:1],{16}8-6[12:1],2,{8}1<3[16:3],,1b,,5-1[12:1],,3-5[12:1]/5-7[12:1],,5qq2[4:1],,7b,,
{8}8-6[12:1],1-5[12:1],8-4[12:1],{16}1-3[12:1],7,{8}8>6[16:3],,8b,,4-2[12:1]/4-6[12:1],,4qq8^2[8:3]*pp8^6[8:3],,,,,,
{8}2-6[12:1],1-5[12:1],2-7[12:1],{16}1-6[12:1],3,{8}2-5-1b[16:3],,2b,,7-5[12:1],3-8b[12:1],7-4[12:1],3-7b[12:1],7w3[12:1],3w7b[12:1],,,1>5[6:1],,{16}5,6,7,8,2x-6[12:1],1x-5[12:1],8x-4[12:1],7x-3[12:1],2bx,1bx,8bx,7bx,{4}1xw5[8:1],1pp2^5[8:3]*qq8^5[8:3],,,
{4}3b-6[1:1],,,,8-3[4:3],,,{8},4-1[1:1],4-7[2:1],,,,,,,,8qq6qq4qq2qq8b[8:5],,,,,,,,
{4}5-2[12:1]/8-3[12:1],8-4[12:1],1-5[12:1],1w5[12:1],1-3[12:1]*-7[12:1],1-6[12:1]*-5[12:1],,{999}3>5[1:2],4^3^2^1^8^7^6^5b[1:2],
