&title=潮鳴り (Roaring Tides)
&artist=折戸伸治「CLANNAD」
&first=0
&des=The Tide Rises, the Tide Falls
&wholebpm=38
&clock_count=4
&demo_seek=107.1
&demo_len=48.2
&lv_5=13+
&des_5=The Tide Rises, the Tide Falls
&inote_5=(38){4},{8},,,,,5,
{16}6<1[4:1],3h[16:3],6,5,{4}6,{16}4h[8:1],7h[16:1],,5,6,3h[16:3],6,5,
6<1[4:1],3h[16:3],6,5,6,,,3,5-2[4:1],,,2,3,5,6,7,
6-1[4:1],3h[16:3],6,5,{4}6,{16}4h[8:1],7h[16:1],,5,6,3h[16:3],7,8,
7-4[4:1],8,7,5,{4}3,{16}2h[8:1],5h[16:1],,2,3>8[4:1],5,6,7,
6-1[4:1],3,6,5,{4}6,{16}4h[8:1],7h[16:1],,5,6,3h[16:3],6,5,
6-2[8:1],3h[16:3],6,5,6<1[8:1],,,3,6/5-1[4:1],,,2,3,5,6,7,
6-1[8:1],3h[16:3],6,5,6-3[8:1],2h[16:1],,,6,2h[16:1],,5,6-3[8:1],3h[16:1],7,8,
7<4[4:1],8,{8}2h[16:1],{16}6,8h[16:1],,,2h[8:1],5h[16:1],,,{8}3/6<1[8:1],{16}5/4,7/3,
2/6-3[8:1],3,6,5,6-2[8:1],8,{8}7h[16:1],{16}6/4,4h[16:1],,5,6<1[8:1],3h[16:3],6,5,
6-1[8:1],3,6,5,6/5-1[8:1],5h[16:1],,3,5-2[8:1],4h[16:1],,2,3,5,6,7,
6/2-5[8:1],3,6,5,6-1[8:1],1,{8}1-4[16:1],{16}6<1[8:1],3h[16:1],,5,6,3,7>2[8:1],8,
7/3-8[16:1],8,7-4[8:1],5,3,7,{8}7,{16}3-8[8:1],3,8-4[8:1],2,3/6-1[16:1],5,6,7,
6-2[16:1],3h[16:1],6-3[16:1],5,6/3>8[16:1],5,6,5,4-1[16:1],5h[16:1],,5,6<1[16:1],5,6-2[16:1],5,
6/2-5[16:1],3,6,5,2<7[8:1],6h[16:1],,3,4-8[8:1],5,5,2,3,5,6<1[16:1],7,
6/8>3[16:1],3,6-3[16:1],5,6/8-5[16:1],5-2[16:1],{8}6,{16}4>1[16:1],4,4,5,6-2[16:1],3,7-4[16:1],7,
6/8-3[16:1],8,7/2-5[16:1],2,{8}6/8,2/6,{16}5/4h[32:1],7/6h[32:1],8/7h[32:1],{32}2,8,{16}4h[32:1]/2-5[64:1],4/3h[32:1],{32}6-1[32:1],4,5,3,
{16}5b/2-7[16:1],3,6,3,2>5[16:1],3,7-2[32:1],3,2<7[16:1],3,7,3,2-5[16:1],3,4-7[32:1],3,
5b/2-7[16:1],3,4,3,2<7[16:1],3,4-1[32:1],3,2/7-2[32:1],3,8-5[32:1],1,7/2-5[16:1],3,5,3,
6b/2<7[16:1],3,4-7[32:1],3,2-5[16:1],3,4,3,2<7[16:1],3,7<4[32:1],3,2-5[16:1],3,7,3,
5b/2-7[16:1],3,7>2[32:1],3,2,3,7,3,5/4h[32:1],{32}7,6,{16}8/7h[32:1],{32}2,6,{16}4h[32:1]/2-7[64:1],{32}3,4,{16}5/6h[32:1],{32}5,6,
{16}6b/2-5[32:1],3-8[32:1],6-1[32:1],3-7[32:1],2,3,6,3,7/2>5[32:1],3>8[32:1],6-1[32:1],3-6[32:1],2,3,6,3,
5b/2h[8:1],3<6[32:1],5-8[32:1],3-8[32:1],1,3,7-2[32:1],3,3/6-1[32:1],3,5-8[32:1],3,6,3,5,3,
6b/2-5[32:1],3-6[32:1],6-1[32:1],3-8[32:1],2,3,6,3,2>5[32:1],3>8[32:1],6-2[32:1],3-7[32:1],2,3,6,3,
2/5-8[1.5789##0.2273],5-2[1.6388##0.2273],8<5[1.6986##0.4545]/2>5[1.6986##0.4545],1,(33)5-1[4:1],5,{8}8b/2b,{2}5b,
E
