&title=千本桜
&artist=黒うさP
&first=-0.11
&des=せい
&clock_count=4
&lv_5=13+
&inote_5=(154)
{1},
{32},,3,4,{16}5,,,3/7,,,2/8,,{16}3/5,,,6/2,,,7/1,,{16}4/6,,,3/7,,,2/8,,
{8}1b-5[8:1]/7b,,1/2,,{16}6/4,,,8/3,,,7/1,,{16}3/5,,,1/6,,,2/8,,
{8}7b-3[8:1],,8b-4[8:1],,1b-5[8:1],,2b,,
{8}3/4,1/5,{16}3,4,3,4,{8}2,1/7,{16}6,5,6,5,{8}7,8/2,{16}3,4,3,4,
{8}2,{24}7,6,5,{8}4,4,
{8}6/5,8/4,{16}6,5,6,5,{8}7,8/2,{16}3,4,3,4,{8}2,1/7,{16}6,,2/8,,
{16}7/1V73[8:2],6,5,4,{8},,
{8}6b,8/4,{16}2,1,2,1,{8}3,4/6,{16}7,8,7,8,{8}6,5/3,{16}2,1,2,1,
{8}3,{24}7,6,5,{8}4,4,
{16}3h[8:1]/5,,5,4,6h[8:1],,3,4,2h[8:1],,6,5,7,4,8,3,1/2,,
{24}2,3,4,{8}5-2[8:1]*-8[8:1],3/7,5,,{16}3,7,3,7,
{8}2/6,1/7,{16}6,5,7,5,{8}6,7/1,{16}2,1,3,1,
{8}2,3/5,{16}6,5,7,5,{8}6h[8:1],{24}8,1,2,{8}3/5,5,
{8}7/3,8/2,{16}3,4,2,4,{8}3,2/8,{16}6,5,7,5,
{8}4/6,3/5,7/4,1/2,{16}1V37[8:2],8,7,6,,,,,
{8}5b,1/6,{16}2,4,3,4,{8}2,1/6,{16}7,8,6,8,
{8}7,8/3,{16}6,5,7,5,{8}6h[8:1],{24}8,1,2,{8}3/5,4/6,
{16}4,3,2,1,7,6,5,4,{8}2h[8:1],4h[8:1],6h[8:1],8,
{16}3h[8:1]/5b,,,2h[8:1]/6h[8:1],,,1/5,,{8}8-3[8:1]/4-7[8:1],,8/4,,
{8}4V28[8:2],,4,,6,5,4h[8:2],,8>3[8:2],,6h[16:3],,7,8,1/3,,
{8}4<8[8:2],,4h[8:1],,3,2,1-4[8:1]/8,7,1/8p5[8:2],,8/1-4[8:1],,1-6[8:1],,1,,
{8}3V51[8:2]/7,{16},5,3,,,7,{8}7,8,1,2,
{8}7V51[8:2]/3,{16},4,,,{8}4,3,4,5,6,
{8}3V15[8:2]/7,{16},5,3,,{8},7,8,1,2,
{8}4-1[8:1]/8<5[8:1],,4qq8[8:2]/8,,5pp6[8:2],,5qq4[8:2],,
{8}5b,,6,,7,,8V62[8:2],,2V48[8:2],1,8,1,2-6[8:1],,2/8,,
{8}7-4[8:1],,7h[8:2],,2-5[8:1],,2h[8:2],,
{8}6h[8:2],,{16}8,1,2,3,{8}4-2[8:1]/6-4[8:1],,,,
{8}1<6[8:2],,6>3[8:2],,3>8[8:2],,6,,{8}5-7[8:1],6,4-2[8:1],3,5,,1,1,
{8}2/8,3>8[8:1]/7,,3/5,4w8[8:1],,,,
{8}2V83[16:3]/6V47[16:3],,,,,,,,
{16}1b/5b,,3,4,2>5[8:1],,1,8,2,,6,6,4-1[8:1],,5-8[8:1],,4,,5,,2-6[8:1],,3,,8/2,,
{16},,5,,4,,
{16}2/6,,2,4,3>8[8:1],,4,5,3,,6,6,{8}2-4[8:1],1-5[8:1],2-6[8:1],1-7[8:1],2-4[8:1],1,
{8}2,,7,6,
{16}3/5,,1,8,2>5[8:1],,3,4,2,,6,6,5-2[8:1],,6-1[8:1],,5,,6,,4-8[8:1],,,,4/5,,
{16},,5,,4,,3/7h[8:1],,4,5,2h[8:1],,8,1,2-5[8:1]/6h[8:2],,,,2,,,,
{32}8-4[8:1]/4,7,6,5,4-8[8:1],3,2,1,8-6[32:3]*-2[32:3],,,,,,,,,,,,,,,,3/5,,,,,,,,
{16}8b/4b,,6,5,7<4[8:1],,8,1,7,,3,3,5-8[8:1],,4-1[8:1],,5,,4,,7-3[8:1],,6,,1/7,,
{16},,4,,5,,
{16}7/3,,7,5,6<1[8:1],,5,4,6,,3,3,{8}7-5[8:1],8-4[8:1],7-3[8:1],8-2[8:1],7-5[8:1],8,
{8}7,,2/4,3,
{16}6/4,,8,1,7<4[8:1],,6,5,7,,3,3,4-7[8:1],,3-8[8:1],,4,,3,,5-1[8:1],,1,,5,,
{16},,4,,5,,6/2h[8:1],,5,4,7h[8:1],,1,8,7-4[8:1]/3h[8:2],,,,7,,,,
{8}7/1-5[8:1],2/8-4[8:1],1<3[8:2],8,1,,7,7,
{8}8h[8:3]/2,,,2,3h[8:3]/5,,,5,7h[8:3]/4,,,4,2h[8:3]/3,,,3,1h[8:3]/4,,,4,
{8}8h[8:3]/3,,,3,6h[8:2]/1-5[8:1],,1b,,{24}8>3[8:1],7,6,{24},,,,,,,,,
{16}3,4,2,5h[8:1],,3,3,4,2,1,3,7h[8:1],,2,2,8,1,7,2,8h[8:1],,4,4,1,2,8,3,1h[8:1],,
{16}3,3,1,2,8,4,6h[8:1],,4,5,5,1,4,2,7h[8:1],,3,8,8,
{16}2,8,1,7,1,8,2,8,3,1,2,7,8,6,1,8,
{16}3b,7,4,6,8,7,1,6,4,5,3,6,{24}2,3,4,{16}8,8,
{16}2,7,3,6,4,7,3,8,2,1,3,8,{24}4,3,2,{16}6,6,
{16}1,2,3,4,1,8,7,6,4,3,2,1,7,6,5,4,
{32}1,2,3,4,5,6,7,8,1,2,3,4,5,6,7,8,
{32}5s1[16:3],4,3,2,1,8,7,6,{8}5,,
{24}2b,3,4,7,6,5,1,2,3,8,7,6,4,3,2,8,7,6,3,2,1,7,6,5,1,2,3,5,6,7,2,3,4,6,7,8,
{8}1-6[8:1]/4h[8:2],,,,
{16}5,6,5,6,4,7,4,7,{24}3,8,3,8,3,8,2>8[8:2],1,2,1,2,1,2,,,,,,
{8}4-8[8:1],5,3-7[8:1],2,4,,
{24}8,7,8,7,8,7,1,6,1,6,1,6,2,5,2,5,2,5,1,8,1,8,1,8,
{24}2,3,4,6,7,8,3>5[8:2],4,5,7,8,1,
{8}3,,4,4,{16}2/6,,2,8,1,7,2,8,3,5,4,,{24}6,5,6,,4,,
{16}2b/8b,,,1b/7b,,,3,5,4-1[8:1]*-7[8:1],,,,4,,,,
{8}8b<5[8:4],,1,,2,,3,,{16}4/5,,6,5,6h[8:1],,5h[8:1],,4-8[8:1],,,,3,,3,,
{8}3h[8:2]/2p5[8:1],,,,7h[8:2]/8q4[8:1],,,,8/3,,8-3[8:1]/7-4[8:1],1/6,7/8,,1,8,
{8}7h[8:2]/6-2[8:1],,,,7h[8:2]/1-3[8:1],,,,
{16}5/4,,3,4,3h[8:1],,4h[8:1],,5-1[8:1],,,,6,,6,,
{8}7/1,6<1[8:1]/2,,6/4,5w1[8:1],,,,
{8}7V16[16:3]/3V52[16:3],,,,,,1/5<4[8:12],,
{4}5b,,,,,,,,,,,,,{8},,,,{8}8,8,2/7,
{16}3,4,3,,6,5,6,,2,4,2,,7,5,7,,1,4,1,,8,5,8,,,,
{8}3/7,2/8,{4}1>3[8:2],3<6[8:2],6-2[8:1],8<5[8:1],
{8}8b/1b>4[8:1],2,1b-5[8:1]/8b-4[8:1],7,1b/8b,,1/8,3/6,
{16}1b/5b,,3-1[8:1],5,1-5[8:1],,7,,7,,6,6,4-8[8:1],,5-7[8:1],,
{16}4-2[8:1],,5-1[8:1],,4<2[8:2],,
{16}5,,4,,,,5,,6,,
{16}3/7,,1-3[8:1],5,3-7[8:1],,6,,6,,5,5,1-4[8:1],,8-5[8:1],,
{16}1-6[8:1],,8-3[8:1],,1-5[8:1],,
{16}8,,1,,,,6,,5,,
{16}4/8,,6-4[8:1],2,4-8[8:1],,1,,1,,2,2,1-6[8:1],,3-8[8:1],,
{16}1q7[8:1],,3,,1,,,,4/8,,
{16},,4-7[8:1]/5-7[8:1],,3/6,,
{8}4-2[8:1]/5-2[8:1],,4-8[8:1]/5,,4/5,,5/1-3[8:1],1-7[8:1],
{8}1-4[8:1],1-6[8:1],1-5[8:1],1,1,,2-6[8:1]/8,4/6,
{16}2b/6b,,8,,2,1,3,8,2,,1/6,,7,4,6,5,7,,3/1,,4,5,3,6,4/5,,{24}1/8,2/7,3/6,
{16}4/5,,2/7,,
{16}1,,4/6,,7,5,6,4,7,,8/2,,3,1,2,8,{8}1/2,8/3,7/8,1/6,{16}2,7,4,5,3/6,,1/8,,
{16}6b/2b,,4,,6,5,7,4,6,,5/2,,3,8,2,1,3,,7/5,,8,1,7,2,3/6,,{24}8/1,7/2,6/3,
{16}5/4,,7/2,,
{16}3/6h[8:1],,3,4,2h[8:1],,6,5,8h[8:1],,2,1,4,5,8,7,{16}1b/6b,,{24}2,3,4,
{8}5w1[8:1],6/4,5,,{16}4,6,2,8,
{8}1b/7b,1/7,{16}2,1,2,1,{8}8/3,8/3,{16}4,5,4,5,{8}2/6,2/6,
{16}7,8,7,8,{24}1/6,,,1/8,2/7,3/6,{8}4/5,2/7,
{8}8/3,1/2,{16}3,4,3,4,{8}5/2,8/7,{16}6,5,6,5,
{8}4/7,1/2,2/5,7/8,{16}1,1,5,5,{8}3/4,3/4,
{8}1b/6b,8/3,{16}7,2,5,4,{8}8/3,1/6,{16}2,8,4,6,
{8}3/7,1/5,{16}6,4,8,2,{8}3/7,{24}1/8,2/7,3/6,{8}4/5,2/7,
{16}4,3,2,1,7,6,5,4,{8}2h[8:1],4h[8:1],6h[8:1],8,
{16}3h[8:1]/5b,,,2h[8:1]/6h[8:1],,,1/5,,{8}8-3[8:1]/4-7[8:1],,8/4,,
{16}6b/4b,,7/3,7h[8:1]/3h[8:1],,,8/4,,{8}1v6[8:1]/5v2[8:1],,,,
