&title=HEISEI
&artist=BEMANI Sound Team "dj TAKA"
&first=0
&des=谱面-200号
&lv_5=13
&inote_5=(152){1},
{8}2-5[2:1],,5,5,,6,7,8,1-6[2:1],,2,2,,3,2,{24}1,8,1,
{8}8-3[2:1],,7,7,,6,7,{24}8,1,8,
{8}1h[8:3],,,3,1,1,7,1,5h[8:3],,,7,5,5,3,5,1-4[2:1],,,,,,,{16}6,7,
{8}8-5[2:1],,,3,,4,3,2,1h[4:1],,3,1h[4:1],,5,1-5[8:1],7,1b,,6,6>3[8:1],
,3,2,1,8h[8:3],,,6h[8:3],,,
4,,2-5[8:1]/4,,7,7>2[8:1],,2,3,4,5h[8:5],,,,,2,4,5,7<4[8:1],,3,3>8[8:1],,8,7,6,5h[4:1],,
7,5-2[8:1]/7-4[8:1],,,,
1,{16}2h[16:6]/4,,,1,,,8,,7h[16:6]/5,,,8,,,1,,
{8}2h[8:1],4h[8:1],3h[8:1],5h[8:1],4h[8:1],6h[8:1],5h[8:1],7,
6/8>3[8:1],5,7,6,4/7,{16}6,5,6,,2,,
{8}3/1<6[8:1],4,2,3,5/2,{16}3,4,3,,6,,
{8}7/8>3[8:1],6,5,6,4/7,{16}6,5,6,,3,,
1<6[8:1],2,,2,1,,3,,4-8[8:1],5,4,5,4,,,,
1b/6b,,2,1,2,,3/8,,7,8,6,8,5-1[8:1],,,,
2b/5b,,3,3,4,,2/5,,6-1[8:1],5,7,5,6,,,,
2,8,2,8,{24}1,2,3,8,7,6,{16}4,5,4,5,{24}3,2,1,5,6,7,
{4}8b<2[2:1]*>6[2:1],,,,
1-6[8:1],1/4<8[4:1],{24}1,,,1,2,3,4,,,1,,,
{8}2-6[8:1]/8,,8,8-5[8:1],,8,4,{24}4>6[8:3],3,2,1-5[8:1],,,,,,1b,,,,,,,,,1>4[8:1],,,1,,,5,6,7,
{16}8<5[8:1],,2,2,8>3[8:1],,1,,8,,5,,6,6,8,,
1-5[8:1]/7,,{8},8b,8b-3[8:1],,2,4,5,6-2[8:1],,8,8-5[8:1],,1,2,3,
{16}4h[16:3]/7,,,2,3,,1,,5h[16:3]/2,,,7,6,,8,,
4/7,,6,5,6,,4,5,3,4,2,1,3,8,4,7,
{8}5>7[8:3],,8,8,,6,6,,4>6[8:3],,7,7,,5,5,4,
{16}3h[8:3],,,,8,7,6>2[4:1],,
,,{8}1,1,,
7h[8:3]/8,,{16}4,3,2>6[4:1],,5,,,7,,,8,,
1<3[8:3],,,,4,,4,,,,2,,2,,,,8<2[8:3],,,,3,,3,,,,1,,1,,8,,
7h[8:3],,,,4,3,2>6[8:2],,,,8,,8,,,,1h[8:3]/7,,,,8,7,6>2[4:1],,3,,,1,,,8,,
{8}1b/7b-4[8:1],,4,3>7[8:2],,5,5-8[8:1],,5/2-5[8:1],,6,6<2[4:1],,2,3,4,
5h[8:3],,{16}8,7,6>3[8:1],,,,1,,1-4[8:1],,,,5h[8:3],,,,1,2,3,,5/6h[8:3],,,7,,,1,,
{8}8b/2b-5[8:1],,5,6<2[8:2],,4,4-1[8:1],,4/7-4[8:1],,3,3>7[4:1],,7,6,5,
4h[8:3],,{16}1,2,3<6[8:1],,,,8,,8-5[8:1],,,,8/4,,,2,,,8,,1-4[8:1]/7,,,6,,,8,,
{1}1<3[2:1]/5h[1:1],
{4}2h[4:1],4h[4:1],8h[4:1],6h[4:1],1<3[2:1],,,1,1w5[2:1],,,,
{16}3,,6,5,6,,2,,6,5,6,,1,,1,,6,,3,4,3,,7,,3,4,3,,{32}8,7,6,5,4,3,2,1,
{8}8<5[8:1],3,2,1>4[8:1],6,7,8,8/5,
{16}2,1,3,1,2,1,4,1,5b,,4b/6b,,3b/7b,,2b/8b,,
{16}1,7,2,6,3>8[8:1],,,,7,,{24}7,6,5,{8}4-7[8:1],2-5[8:1],4,,8,8h[4:1],,3>8[8:1],3,{24}8<2[8:3],7,6,{8}5-1[8:1],,5b,,,{24}8<5[8:1],,,8,,,4,3,2,
{16}1>4[8:1],,7,7,1,,8,,1<6[8:1],,3,3,1p3[16:3],,2,,1b,,,,,,5,,8>3[8:1],,6,6,8p6[8:3],,7,,8b,,,,,,2h[8:4],,,,,,,,8,7,6/2,,2,,2,,5/1,,1,,5/1,,4/8,,4/8,,
1-5[8:1],5,2,4,1,,7-2[8:1],7,5,5,7,,4,,3,,
2bz6[8:1],,,,2b,,8bz4[8:1],,,,3,,2,,1,,
8>3[8:1],,,5,8,,6,,7<4[8:1],,,3,,,2,,
1-4[8:1],7,1,7,1,,8,,1<6[8:1],,,4,1,,3,,
2,5,2,5,1-5[8:1],,7,,1<6[8:1],,8,,4,3,2,1,
7,8,7,8,7,8,7,8,7,8,7,8,7,8,7,8,
6,5,6,5,7,4,7,4,8,3,1,2,3b/8b,,,,
5/7h[16:3],,,3,4,,1,,2h[16:3]/4,,,6,5,,8,,1/6,,
7,8,7,,8,1,8,,2,1,2,1,2,1,
{8}2/1,2/3,3/4,4/5,5/6,6/7,7/8,8/1,
{24}1>7[1:1],8,1,8,1,8,1,8,1,8,1,8,1,8,1,8,1,8,1,8,1,8,1,8,1,
