&title=KAWAII♡めたもる交響曲
&artist=I'm a Cutie Finder/スマートフォン向けゲーム「THE IDOLM@STER SHINY COLORS Song for Prism」より
&first=0.82
&des=Ragna
&wholebpm=188
&demo_seek=
&demo_len=
&des_5=Ragna
&lv_5=13+
&inote_5=(178){1}
Ch[4:3],{4}
1xq4[4:3]/8x,,E7,,
7>3v5[8:5],,4,,
3>6<3[1:1],,6<3>6[1:1]b,,
3>6[2:1]*p6[2:1],,,,
1q4[4:3]/8,,D7/E7,,
7>3v5[8:5],,4,,
1pp3pp5pp7pp1[2:3],,5x,,
8x,7x,6x,{8}5xh[16:1],5xh[16:1],{4}
1q4[2:1]/4,5,A7/A6/D7,8,
7>3v5[2:1]/5,4,4,4,
6-2[8:1]/4-8[8:1],C,5-1[8:1]/3-7[8:1],C,
8-5[4:1],5q4[4:1],4,E2,
1q4[2:1]/8,5,A7/A6/D7/E7,8,
3v8[8:1]/5v8[8:1],C,{8}E2/7h[16:1],E3/7h[16:1],7h[16:1]/E4,7h[16:1]/E5,{8}
8x/3x,8x/3x,8x/3x,,1x/6x,1x/6x,,4x/5x,
,1x/8x,2x/7x,3x/6x,,4b/5b,2b/7b,,{16}
4,5,4,5,3,6,3,6,2,7,2,7,1,8,1,8,
1bx,1bx,1bx,1x,1x,1x,1x,1x,A1f,,8,,8,,8,,
84,,7,5,6,,2,,15,,2,4,3,,7,,
8-4[8:1]/5-2[8:1],,,,85,,,,1h[8:3],,8b,,8b,,8,,
28,,3,,45,,6,,71,,6,,54,,3,,{24}
2x/8xh[8:1],3x,4x,5x,,,2x/8xh[8:1],3x,4x,5x,,,{16}7h[8:3],,1b,,1b,,1,,
15,,2,4,3,,7,,84,,7,5,6,,2,,
7qq5[8:1]/1^4[8:1],,,,71,,,,6h[8:3],,1b,,1b,,1,,
2h[4:1]/5,,{32}A8,B8,C,B4,{16}A4,,,,7h[4:1]/4,,{32}A1,B1,C,B5,{16}A5,,,,
8b/E4,,,,8b/E6,,,,8b/E2,,8,,8b/E5,,8,,
84,,7,5,6,,2,,15,,2,4,3,,7,,
8^5[8:1]/4^1[8:1],,,,84,,,,2h[8:3],,8b,,8b,,8,,
E4/B3,,E6/B6,,E2/B2,,E8/B7,,B4/B3/E3,,B5/B6/E7,,B4/B3/E3,,B5/B6/E7,,
,,15,,26,,3^8[8:1]/7v4[8:1],,,,3b/7b,,,,5,,
E2/B2/B1/A1/D2/A2/5x,,,7,4,,4,,E8/B7/B8/A8/D8/A7/4x,,,2,5,,5,,
E2/B2/B1/A1/D2/A2/5x,,,7,4,,4,,E8/B7/B8/A8/D8/A7/4x,,,2,5,,5,,
6x/4x,,64,,73,,73,,82,,1,1,1,1,1,1,
1b>8[16:5]b*q8[16:5]b,,,,,,,,,,,,C,,,,
2h[8:1],,6,6,2h[8:1],,4,4,2pp8[8:3],,6,,2,,7,,
,,6,,6,,4pp4-2[4:1]b/5,,,,8b,,8b,,,,
7h[8:1],,1,1,7h[8:1],,3,3,8-5[8:1],,1-4[8:1],,8,,1,,
,,7,,6,,5qq5-7[4:1]b/4,,3,,1b,,1b,,,,
2h[8:1],,8,8,1,,B6,,B2,,B8,,B4,,,,
7h[8:1],,1,1,8,,B3,,B7,,B1,,B5,,,,
1bx-3[8:1]/8bx-4[8:1]b,,,,,,,,8bx-6[8:1]/1bx-5[8:1]b,,,,,,,,
1bx-3[8:1]/8bx-4[8:1]b,,,,8bx-6[8:1]/1bx-5[8:1]b,,,,1bx/8bx,,,,E8/B8/B1/E2/E1f,,,,
3h[8:1],,7,7,3h[8:1],,4,4,3>7>3[8:3],,6,,3,,5,,
,,6,,6,,4pp4-2[4:1]b/5,,,,8b,,8b,,,,
6h[8:1],,1,1,6h[8:1],,4,4,7-4[8:1],,3-8[8:1],,7,,3,,
,,7,,6,,5qq5-7[4:1]b/4,,3,,1b,,1b,,,,
1x,1x,1x,1x,1x,,,,8x,8x,8x,8x,8x,,,,
3x,3x,3x,3x,4x,4x,4x,4x,5x,5x,5x,5x,C,,,,
3/B7,,4,,5,,6/B2,,5,,4,,36,,E8/B8/B1/E2,,
,,,,6bv1[8:1]b/4bv1[8:1]b,,,,6b/4b,,,,E8/B7/B8,,,,
3h[8:1],,4,3,B8,,,,6h[8:1],,5,6,B1,,,,
3h[8:1],,4,3,B8,,,,E2f/B2/B1,,,E7f/B7/B6,,,E4f/B4/B3,,
6h[8:1],,5,6,B1,,,,3h[8:1],,4,3,B8,,,,
6h[8:1],,5,6,B1,,,,E8f/B7/B8,,,E3f/B2/B3,,,E6f/B5/B6,,
3h[8:1],,4,3,B8,,,,E2f/B2/B1,,,E7f/B7/B6,,,E4f/B4/B3,,
6h[8:1],,5,6,B1,,,,E8f/B7/B8,,,E3f/B2/B3,,,E6f/B5/B6,,
3h[8:1],,4,3,B8,,,,6h[8:1],,5,6,B1,,,,{32}
1b,2,3,4,,,,,8b,7,6,5,,,,,1b,2,3,4,5,6,7,8,{16}1bx/E5f,,,,
28,,2,,35,,3,,28,,2,,35,,3,,
71,,7,,64,,6,,71,,7,,6x/4x,,6xh[4:3]/4x,,
,,B5/B4/D5,,,,B8/B1/C,,,,3x,,4-8[8:1],,5x,,
6,,,,5-1[8:1],,4,,3,,,,2x/8x,,,,
3-1[8:1]/6,,5,,3b/4,,5,,3-1[8:1]/6,,5,,3b/4,,5,,
6-8[8:1]/3,,4,,6b/5,,4,,6-8[8:1]/3,,4,,6b/5,,4,,
36,,36,,27,,27,,18,,27,,36,,45,,
4x^2[8:1]/5x^7[8:1]b,,,,4xq1[8:1]/5xp8[8:1]b,,,,4x/5x,,,,2b/7b,,,,
38,,3,,45,,4,,38,,3,,45,,4,,
61,,6,,54,,5,,61,,6,,5x/4x,,4x/5xh[4:3]x,,
,,{32}1x,E2,B2,B3,E4,,,,1x,E1,B8,B7,E7,,,,{16}2x,,3^2-8[8:1],,4x,,
5,,,,6^7-1[8:1],,5,,4,,,,2x/8x,,,,
34,,4,,15,,5,,34,,4,,15,,5,,
2x-5[8:1],,4x-8[8:1],,2x,,4x,,,,17,,26,,35,,
64,,64,,75,,75,,4,8,3,7,2,6,1,,
,,45,,27,,45,,E5/B4/B5/B3/B6/E3/E7/C/B2/B7,,,,,,,,
8b>7[16:7]b/1bh[2:1],,,,,,,,,,1,,1,,1,,
1w5[8:1]b,,,,1b,,,,73,,6,5,7,,1,,
2-5[8:1]/5-1[8:1],,,,25,,,,8h[8:3],,1b,,1b,,1,,
87,,6,,54,,3,,21,,3,,54,,6,,{24}
7x/1xh[8:1],6x,5x,4x,,,7x/1xh[8:1],6x,5x,4x,,,{16}3h[8:3],,8b,,8b,,8,,
73,,6,5,7,,1,,26,,3,4,2,,8,,
2pp4[8:1]/7-1[8:1],,,,27,,,,3h[8:3],,8b,,8b,,8,,
7h[4:1]/4,,{32}A1,B1,C,B5,{16}A5,,,,2h[4:1]/5,,{32}A8,B8,C,B4,{16}A4,,,,
1b/E6,,,,1b/E4,,,,1b/E8,,1,,1b/E5,,1,,
26,,3,4,2,,8,,73,,6,5,7,,1,,
2^5[8:1]/6^1[8:1],,,,26,,,,8h[8:3],,1b,,1b,,1,,
E6/B6,,E4/B3,,E8/B7,,E2/B2,,B5/B6/E7,,B4/B3/E3,,B5/B6/E7,,B4/B3/E3,,
,,83,,74,,5^2[8:1]/6v1[8:1],,,,6b/5b,,,,8,,
E4/B3/B4/A4/D4/A3/8x,,,6,1,,1,,E6/B6/B5/A5/D6/A6/1x,,,3,8,,8,,
E4/B3/B4/A4/D4/A3/8x,,,6,1,,1,,E6/B6/B5/A5/D6/A6/1x,,,3,8,,8,,
5x/7x,,75,,64,,64,,53,,53,,62,,62,,
1,8,1,8,2,7,2,7,1,8,2,7,1,8,2,7,{32}
A1,A2,A3,A4,A5,A6,A7,A8,D2,D3,D4,D5,D6,D7,D8,D1,
E2,E3,E4,E5,E6,E7,E8,E1,B2,B3,B4,B5,B6,B7,B8,B1,{4}
C,,,,
1xq4[2:1]/8x,5,B7/B6/E7/A7/A6,8,
7>3v5[2:1]/5,4,4,4,
4^1[4:1]/5,1-5[4:1],5^8[4:1],8-4[4:1],
4pp4[16:5]*qq4[16:5]b,,,26,
1q4[2:1]/8,5,B7/B6/A7/A6/D7/E7,8,
7>3v5[2:1]/5,4,4,4,
4v1[8:1]/5-8[8:1],C,2-4v5[4:1],5-7[8:1],
8h[4:1],1-4-1[4:1],Ch[4:1],,{8}
2x/8x,3x/7x,4x/6x,,1x/7x,2x-5[8:1]/6x-1[8:1],,2x/6x,
,4x/8x,3x/7x,2x/6x,,E3,E7,C,
7x/1x,6x/2x,5x/3x,,8x/2x,7x-4[8:1]/3x-8[8:1],,7x/3x,
,5x/1x,6x/2x,7x/3x,,8b/4b,2b/6b,,
,,,,{32}1bx/5xh[8:11],2x,3x,4x,,6x,7x,8x,1bx,2x,3x,4x,,6x,7x,8x,
1bx,2x,3x,4x,,6x,7x,8x,1bx,2x,3x,4x,,6x,7x,8x,
1bx,2x,3x,4x,,6x,7x,8x,1bx,2x,3x,4x,,6x,7x,8x,
{1}1bx/Cf/B2/B7/B3/B6,
E
