&title=アメヲマツ、
&artist=美波
&first=-0.01
&des=日音屋
&lv_5=13
&inote_5=(150)
{1},
{4}2-5[4:6],,,E7,
{4},E6,E7,E8,
{4}1-6[4:5],,,,
{4}2-5[4:5],,,,
{4}1-6[4:6],,,A3,
{4},A4,A3,A2,
{4}1-5[8:5],,,,
{16}6x,6x,5x,,7,,3,4,,4,2,,5,4,8,,
{8}2b/7b-4[8:1],,3V17[16:3],,5,6,6-3[8:1],,
{8}1-4[8:1],,5V71[16:3],,3,2,2-6[8:1],,
{8}5,5<1b[16:3],4,3,3,4qq5b[8:3],5,6h[8:3],
{8},,,,{16}6,5,6,,47,,3,4,
{8}2b>5[8:1],,6pp6[4:1],,4,3,3q7[8:1],,
{8}8<5[8:1],,4qq4[4:1],,6,7,8,8,
{8}1-5b[8:1]/7,1,6-8b[8:1],6,4-2b[8:1],4,1-5b[8:1],1,
{16}3,,4,,6,5,7,,1,8,2,,5,4,6,,
{8}3-5[8:1],,7h[4:1],,6-8[8:1],7,5,,
{8}4-2[8:1],,5h[4:1],,1-5[8:1],8,7,,
{8}4/6-4[8:1],,2h[4:1],,3-1[8:1],2,4V68[16:3],,
{8}2,,4h[4:1],,1-5[8:1]*-6[8:1],,,,
{8}4/7-3[8:1],,2h[4:1],,1-3[8:1],2,8,,
{8}4/6-1[8:1],,5h[4:1],,8-4[8:1],2,1,,
{8}5/1-5[8:1],,7h[4:1],,6-8[8:1],7,5qq3[32:5],,
{16}8,,7x,,6h[16:3],,,5,6,,2,,3,4,3,,
{16}2x/5x-8[4:1],,,,3,,,,3,,7,4,6,5,7,,
{16}4x-1[4:1]/6x,,,,7,,,,7,,6,,3,4,2,,
{16}1x/5x-8[4:1],,,,2,,,,2,,3,,1x-5[8:1]/4xh[4:1],,,,
{16}1,,3x,,2,,26,,7,,18,,2,1,3,,
{16}4x/8x-5[4:1],,,,3,,,,3,,,,3-5[8:1],,2x/8x,,
{16},,6-3[8:1],,1x/7x,,,2,2,,4,,5>2[8:1],4,7,,
{8}6x,,4q8[8:1],2,3x,,5xh[4:1],,
{16}7,4,5,,1/4h[16:3],,,3,4,,6,,8-3[8:1]/5,,,,
{1}8b/7b-4[4:3],
{24}2h[2:1],,,,,,,,,D5,A5,D6,A6,,,,,,4qq5[4:3],,,,,,
{1}7h[1:1],
{8}6>2[16:5],,,7,7,6,5-8[8:1],,
{8}2b/5b,3,27,3,{16}6/2h[16:3],,,3h[16:3],,,4,,
{8}4b/5b,6b/3bh[8:13],,,,,,,
{4},,,8x>7b[16:6],
{4},,{32}5x,4x,3x,2x,1x,8x,7x,6x,5xw1[8:1],,,,,,,,
{8}5xb,,37,37,46,46,35,35,
{8}2,1,8>3[8:1],7,6,5,4,3,
{8}2x/5x,25,36,36,47,47,56,56,
{8}7,8,1<6[8:1],2,3,4V28[16:3],5,6,
{8}7x,7,68,68,15,1/5V71[16:3],2,3,
{8}4,4,57,57,4/8-4[8:1],48,3,2,
{8}1b/5b,3,26,3,24,3,15,3,
{8}26,35,48,57,{32}2x,3x,4x,5x,6x,7x,8x,1x,2x,3x,4x,5x,6x,7x,8x,1x,
{8}2x-4[8:1]/5x-1[8:1],,25,,1-4[8:1],8,7-1[8:1]/1,,
{8}7-5[8:1]/4-8[8:1],,47,,8-4[8:1],1,2-6[8:1]/8,,
{8}2-4[8:1]/5-1[8:1],,25,,1-5[8:1],8,7>6[16:5]/1,,
{8}3b/7b,,,8,1-4[8:1],5,6-1[8:1],,
{8}5b/6b,2,2,3-6[8:1]/4,7,7,8-3[8:1],7,
{8}78,5,5,4/6,{16}35,,2,4,3-8[8:1],4,2,,
{8}3b/4b,5,6,5/7-4[8:1],8,1,2-7[8:1],3,
{8}4,5,6,{16}7,5,6,5,7,5,6,4,5,3,
{4}4-8[8:1],2s6[4:1],6V82[4:1],2V46[4:1],
{8}6V82b[4:1],,2xbV46b[4:1],,6xb,,1xb-7-5-3b[16:3],,
{64}1xb/3xb,B7f/B6/B5,,,,,,,,,,,,,,,8x-2-4-6b[16:3],,,,,,,,,,,,,,,,6xb/8xb,B2f/B3/B4,,,,,,,,,,,,,,,1xw5b[8:1],,,,,,,,,,,,,,,,
{64}1xb,Cf/B3/B7/A3/A7,,,,,,,,,,,,,,,{8},6,57,8V64[16:3],1,1x,
{8}2h[4:1],,4-6[8:1],5,2-4[8:1],1,7,8xV64[16:3],
{8},1x-5[8:1],,1,6-1[8:1],7,4,3,
{8}8b/2b,6,51,3,57,6,34,2,
{16}8,3,6,5,7,1,4,3,{32}7x,6x,5x,4x,3x,2x,1x,8x,7x,6x,5x,4x,3x,2x,1x,8x,
{8}7x-4[8:1]/4x-1[8:1],,7/4-8[8:1],,8-5[8:1],1,2-8[8:1],3,
{8}2-5[8:1]/5-8[8:1],,5V31[16:3]/2,,1-5[8:1],8,7-3[8:1],6,
{8}7<4[8:1]/4>1[8:1],,7/4-8[8:1],,8-4[8:1],1,2<3[16:5],3,
{8}6bp2[32:3]/2b,,,,{16}1x>4[8:1],8x,7x,,1x<6[8:1]/6x,,,,
{8}4h[8:1]/1b,,4x/A6/B6/E6/E7,,4x/A7/B7/E7/E8,,4x>1[8:1]/A8/B8/E8/E1,,
{8}7h[8:1],,7x/A1/B1/E2/E1,,7x/A2/B2/E3/E2,,7x<4[8:1]/A3/B3/E4/E3,,
{8}8,1,24,3,75,6,15,{64}3xb/7xb,,,,,,,,
{16}6x,6x,5x,,48,,3,4,1,,78,,6,5,8,,
{8}Cf/B3/E3/A2/B7/E7/A6,,3b/4b,1b/5b,,6b/5b,8b<5[4:1]/4b>1[4:1],,
{8},,,2,4,5,7,18,
{8}2b/6b,,6b/5b,8b/4b,,3b/4b,1b>5[4:1]/5b,,
{16}B6h[16:4],,,,,,,,7,,8,,1,,2,,
{8}3b/8b,,7b/8b,1b/5b,,1b/2b,4b/8b<4b[4:1],,
{24},,,D3,A2,D2,{8}A1,,5,4,3,2,
{8}5b/1b-5[8:1],,6b/1b,8b-4[8:1],,8b/3b,1bs5<4b[1:1],,
{24},,,,,E7/E6/B6f/A6,{8},,,,,,
{4}5h[4:1],,5h[4:1],,
{4}5h[4:1],,5<1<5[4:5],,
{4}3h[4:1],,3h[4:1],E,
{4}3h[4:1],,3p4>8[4:5],,
{4}7h[4:1],,7h[4:1],,
{4}7h[4:1],,7qq4<8[4:5],,
{4}1h[4:1],,1h[4:1],,
{4}1h[4:1],,1>8[4:7],,
{4}B8,B7,B6,B5,
{4}B4,B3,B2,B1,
{4}A2,B2,A3,E4,
{4}A4,B5,A6,B7,
{4}E1/D1,E8/A7,B5/E5,B6/A6,
{4}B3/E3,A4/E5,A1/B1,B2/E3,
{4}B5/E6,E4/D4,A7/E8,A5/B5,
{4}B6/E7,A2/E3,E1/D1,B2h[8:1]/B7h[8:1],
