&title=all luv
&artist=hxly xo
&first=0
&des=skJ
&lv_6=14
&inote_1=
&inote_6=(174),,,,
1b>8[4:11],,,,B1,,,,E5,,,,B8,,,,
1,1,1,1,1/8,
2,7,2,2/7,
8,8,8,8/1,
2/7,3/6,4/5,2b/7b,
{8}
8,1,7,2,6,
{16}
2,1,2,1,2,1,2,,8,,
{8}
8,7,7,1,1/7,2/6,3/5,
{16}
2,7,2,7,2,,2/7,,,,1,2,3,4,8,7,6,5,
B1,B2,B3,B4,B8,B7,B6,B5,Cf,,,,
4-7[4:1],,,,8,,1,,2,,3,,
{8}
4>1[4:2],,8,7,6,5,4,,
{16}
E2,B1,B8,E8,E6,B5,B4,E4,B1,B2,B3,B4,B5,B6,B7,B8,Chf[4:4],,,,,,,,
2-6[4:1],,,,,,,,,,,,
2h[4:3],,,,8,,8,,7,,7,,6,,6,,5,,5,,1,,1,,7,,7,,2,,2,,2/7,,,,
1,8,1,,2/7,,3/6,,4/5,,1/2,,3/8,,4/7,,5-2[4:1]/6-1[4:1],,,,,,,,,,,,2/7,,,,
{8}
2x-8[16:1],2x-4[16:1],,,7x-1[16:1],7x-5[16:1],,,
{16}
3,4,3,,6,5,6,,2,1,3,8,4,7,5,6,8,7,1,6,2,5,3,4,2h[4:1]/6h[4:1],,,,,,,,
1-4[8:1]/5-8[8:1],,,,,,,,
{8}
2b/6b,1,8/5,1,3/7,8,1/4,8,2/7,
{16}
B2,B3
,E4,,B7,B6,E6,,2,1,2,,7,8,7h[4:2],,B8,B1,E2,,B5,B4,E4,,,,2-6[8:1],,2,,
1-5[8:1],,1,,8-4[8:1],,8,,7-3[8:1],,7,,1b,,,,
{8}
3/4,2,5/6,7,3/5,2,4/6,7,2/4,1,5/7,8,1-5[8:1]/8-4[8:1],,,,
Ch[4:4]/1x,2x,3x,4x,5x,6x,7x,8x,
B8,B7,B6,B5,B1,B2,B3,B4,
{8}
C/1x-5[21.75#64:1],,
{16}
2/7,,1,1,1,,8,8,8,,3,7,3,7,2,8,2,8,1,8,1,,2/7,,1-5b[64:1]/8-4[64:1],,,,1b/8b,,,,
{8}
1/8,2/7,
{16}
1,8,1,8,2,7,2,7,1,2,3,4,8,7,6,5,1,8,2,7,1,8,2,7,1-5[16:1]/8,,2,,7-3[16:1]/1,,8,,
1-5[16:1]/7,,8,,7-3[16:1]/1,,6,,7/1,,8,,8/1,,7,,7/2,,3/6,,1/8,,,,1/5,2,3,4,5/1,6,7,8,1/5,2,3,4,5/1,6,7,8,
1,5,1,5,2,6,2,6,2x/6x,3/7,4/8,1/5,2,3,4,5,6/2,,1,,8-2[16:1]/5,,8,,7-3[16:1],,7,,6-4[16:1],,6,,
E8,B8,B1,E2,E6,B5,B4,E4,1,2,3,4,5,6,7,8,1/2,,2/3,,3/4,,4/5,,3/6,,7/2,,8/1,,8/1,2,3,4,5,6,7/2,,1,8,2,7,3,6,
,,2/7,,1b/8b,,2/7,,1-6[16:1],,1,,8-3[16:1],,8,,2-5[16:1],,2,,7-4[16:1],,7,,E4,B3,B2,E2,E6,B6,B7,E8,
C/8x<4[4:1],,,,4>8[4:1],,,,8<4[4:1],,,,4>8[4:1],,,,8,,,,4,3,2,1,5,6,7,8,2,4,3,7,5,6,2/7,,8b/1bw5[90#4:3],,,,
,,,,,,,,,,,,,,,,,,,,,,,,,,,,
{8}
8/1,8/2,8/3,7/4,
{16}
5,6,5,6,5h[4:2],,B6,B7,B8,B1,B2,B3,,,,,Chf[4:2],,,,,,,,
8,,8,,2/7,,,,1,2,3,4,8,7,6,5,1-5[4:1],,,,5-2[4:1],,,,2-7[4:1],,,,7-4[4:1],,,,4,,,,8,,,,2,1,2,,7,8,7,,1w5[43.5#32:1],1,1,,1,1,1,,2h[4:1]/8h[4:1],,,,,,,,1b,,,,7/2,,,,8,7,6,5,8,7,6,5,1,2,3,4,1,2,3,4,5x/1x,4x/8x,3x/7x,2x/6x,1x/5x,E1,B8,B7,E7,E5,B4,B3,E3,E2,B1,B8,E8,E6,B5,B4,E4,,,,3x,6x,3,6,2,7,2,7,1-5[87#16:1]/8-4[87#16:1],,,,2/7,,,,1b/8b,,,,
2-8-6[4:1],,,,6-4-2[4:1],,,,2<6[4:1],,,,6<2[4:1],,,,,,,,6h[4:1],,,,5h[4:1],,,,Chf[4:4],,,,E3,,,,E1,,,,E7,,,,,,,,,,,,1/8,,,,2/7,,,,3h[4:1]/6,,6,,6,,,,1h[4:1]/2,,2,,2,,
,,8h[4:1]/7,,7,,7,,,,4,3,2,1,5,6,7,8,5,6,7,8,1,2,3,4,5/6,,4/7,,3/8,,1/8,,2,1,2,,7,8,7,,
2-6[16:1],1,3,8,2b,,,,1/8,,8,,2/7,,2,,3/6,,6,,4/5,,5,,8,7,8,7,1,6,1,6,2,5,2,5,3,4,3,4,
Chf[4:4],,,,7x,,6x,,5x,,4x,,3x,,2x,,1x,,B1,,E3,,B4,,B8,,E7,,B5,,,,C/1x-5[21.75#128:1],,,,2h/7h,,1h,8h,1h,,7h,2h,7h,,3h/6h,,1h/8h,,2h,7h,1h,8h,2h,7h,1h,8h,2h,7h,
{32}
1x-5[32:1]/8x-4[32:1],2x/7x,3x/6x,4x/5x,,,,,1b/8b,,,,,,,,
{16}
4,3,2,1,5,6,7,8,1/2,,3/8,,4/7,3,2,1,8/3,2,1,8,7/2,1,8,7,6/1,8,7,6,8-3[16:1]/5,,1,,
8-5[16:1],,7,,8-3[16:1],,1,,8-5[16:2],,7,,5>1[4:1],,,,1<5[4:1],,,,5,4,3,2,1,,,,
8,7,8,7,1,6,1,6,2,5,2,5,4/3,,4/3,,3,8,3,7,3,6,3,5,
{28}
3,4,5,6,7,8,1,2b/6b,,,,,,,
{16}
2/6,,1,,7/3,,8,,1/5,,3/7,,1/5,,C,,2b/7b,,
{64}
2,,,,1,,,,2,E3,B3,B4,E5,,,,7,,,,8,,,,7,E7,B6,B5,E5,,,,2,,,,1,,,,
{128}
2x,,3x,,4x,,,,,,,,,,,,,
{64}
7,,,,8,,,,
{128}
7x,,6x,,5x,,,,,,,,,,,
{16}
,,2b/7b,,,,1/5,2,3,4,5/1,6,7,8,1/5,2/6,3/7,4/8,5>1[116#8:1]/1<5[116#8:1],,5/1,,,,5b/1b,,,,,,
1-5[16:1]/8,,2,,7-3[16:1]/1,,8,,1-5[16:1]/7,,8,,7-3[16:1]/1,,6,,
1-5[16:1]/7,,2,,7-3[16:1]/1,,8,,1-5[16:1]/7,,8,,7/1,,,,8<4[4:1],,,,4>8[4:1],,,,8,,,,4b,,,,1,5,2,6,3,7,4,8,3,7,2,6,
{16}
1bx/5bx,2bx/6bx,3bx/7bx,4bx/8bx,1w5[43.5#4:1]bx/5bx,,,,,,,,,,,,,,,,,,,,,,,,,,,,,,,,
{8}
1,1,8,8,
{16}
2,7,2,7,2-6[8:1],,,,7-3[8:1],,,,,,,,4-8[4:1]/5-1[4:1],,,,,,,,Cf,,,,
1h[4:1]/2h[4:1],,,,,,,,8h[4:1]/7h[4:1],,,,,,,,3/4,,2,,5/6,,7,,2/4,,1,,5/7,,8,,2,1,2,,7,8,7,,1b/8b,,,,E2,B2,B3,,E8,B7,B6,,4x-1[4:1]/5x-8[4:1],,,,,,,,
8x>4[4:1],,,,4<8[4:1],,,,2x-6[8:1],,,,C,,,,7,8,7,,2,1,2,,4,5,4,5,3,6,3,6,2,7,2,7,1,8,1,8,7,6,5,4,1,2,3,4,5,,,,C,,
,,1>4[87#16:1]/8<5[87#16:1],,,,2/7,,,,1b/8b,,,,3qq4[4:1],,,,6pp5[4:1],,,,,,,,4x/5x,,,,2/7,,,,1,8,2,7,3,6,4,5,Chf[4:4],,,,,,,,,,,,,,,,,,,,,,,,,,,,,,,,
1h[4:3],,,,B7,,E6,,,,,,B2,,E4,,8h[4:3],,,,B2,,E4,,,,,,B7,,E6,,2h[4:3],,,,B7,,E6,,,,,,B2,,E4,,7h[4:3],,,,B7,,E6,,,,,,B2,,E4,,
Chf[1:8],,,,,,,,,,,,,,,,E5,,,,,,,,,,,,,,,,,,,,,,,,,,,,,,,,E7,,,,,,,,,,,,,,,,,,,,,,,,,,,,,,,,E1,,,,,,,,,,,,,,,,,,,,,,,,,,,,,,,,E3,
