&title=Aurgelmir
&artist=溝口ゆうま feat. 大瀬良あい
&first=0.15
&wholebpm=180
&demo_seek=75.4
&demo_len=16.2
&des=始祖の巨人
&lv_5=14+
&inote_5=(143)
{4},,,,
{12}1>7[4:1],,,8,8,8,8w4[8:1],,,8,,,
{12}8<2[4:1],,,1,1,1,1w5[8:1],,,1,,,
{12}1>7[4:1],,,8,8,8,8w4[8:1],,,8^3[8:1],,,
{12}8^5[8:1],,,8w4[8:1],,,8,,,1-4[8:1],,8,
{12}1,,,6,5,6,7h[4:1]/4,,,3,4,3,
{12}2h[4:1]/5,,,8,8,8,1v4[8:1]/7v4[8:1],,,17,,,
{12}2,,,8-5[8:1],,1,8,,,34,,18,
(122)
{12}18,,,27,36,45,4h[4:1]/5h[4:1],,,,,,
(150)
{16}18,,2,1,2^5[8:1],,2,3,2,,,,87,,7,8,
{16}7^4[8:1],,7,6,7,,,,12,,2,1,
{16}2^5[8:1],,2,3,2,,7,,7,78,,2,12,,1-5[16:1]/8-4[16:1],,27,,18,,
{16},3-6[16:3],,,6V42[16:5],,7,,8,,,,,,7-4[16:3],,
{16},4V68[16:5],,,3,,2,,,,1,2,3,,3,,
{48}45,,,,,,5,,,,,,56,,,,7,,,,8,,,,12,,,,3,,,,4,,,,56,,,,6,,,,6,,,,
{12}34,3,3,
(133)
{48}7,,,,6,,,,5,,,,4w8[8:1],,,,3,,,,2,,,,4,,,,,,,,,,,,,,,,,,3>6[8:3],,,4,,,
(180)
{8}3,5,5,5,,3,2,2,
{8},3>6[8:3],5,5,5,4,4,3,
{16},,7,6,5-8[4:1],,3,,3,,4,,4,,6<3[8:3],,
{16},,4,,4,,5,,5,,,,1-5[8:1],8,2,7,
{8}1/6h[8:1],,8-4[8:1]/3h[8:1],,8,3h[8:1],8-5[8:1],1,
{16}8,,2,,3,,46,,3h[8:1]/5h[8:1],,,5h[8:1]/3h[8:1],,,46,,
{8}3,3,4,4,5,5,6,6,
{16}2,4,3,5,4,6,5,7,1-6[8:1]/8-3[8:1],,,,,,,,
{16}5h[2:1],,,,6,7,8,1,2,3,4,5,6,7,8,1,
{16}2/6h[2:1],,,,7,8,1,2,3,4,5,6,7,8,1,2,
{16}3/7h[2:1],,,,8,1,2,3,4,5,6,7,8,1,2,3,
{16}4/8h[2:1],,,,1,2,3,4,5,6,7,8,1,2,3,4,
{16}5h[2:1]/1,,,,4,3,2,1,8,7,6,5,4,3,2,1,
{16}8/4h[2:1],,,,3,2,1,8,7,6,5,4,3,2,1,8,
{8}7-4[8:1],8,7,2-5[8:1],1,2,8-4[8:1],1,
{8}8,1-5[8:1],8,1<1[4:1],,,,,
{8}5h[4:3],,4,,3,,2-4[8:1],,
{8},,5,,5h[4:3],,2,,
{8}3,,4h[4:3],,5,,6,,
{8}7-5[8:1],,,,4,,4h[4:3],,
{8}7,,6,,5h[2:1],,2,2,
{32}2-4[8:1],,,,,,,,5,,,,5,,,,5,,,,5,,,,5,4,3,2,1,8,7,6,
{16}45,,,,3,,3,4,2,,6,,6,5,7,,
{16}81,,3,4,2,,2,1,3,,4,,4,,5,4,
{16}6,,,,3,,3,4,2,,6,,6,5,7,,
{16}81,,6,5,7,,7,8,6,,4,,35,,,,
{16}47,,6b,5b,6b,,25,,3b,4b,3b,,16,,7b,8b,
{16}7b,,38,,2b,1b,2b,,45,,,78,78,,16,,
{16}2-5[16:1]/5,,,7-4[16:1],,,1-5[16:1],,,8-4[16:1],,,3,,3h[8:1],,
{16}5h[4:1],,,,1h[4:1],,,7,7h[16:3],,,3h[8:1],,,6h[8:1]/5h[8:1],,
{48},,,6h[8:1]/3h[8:1],,,,,,,,,6h[8:1]/1h[8:1],,,,,,,,,6h[8:1]/7h[8:1],,,,,,,,,8,,1,,2,,3,,4,,5,,6,,7,,8,,
{32}1,2,3,4,5,6,7,8,1,2,3,4,5,6,7,8,1-5[8:1],,,,,,,,,,,,,,,,
{48}8>4[6:1],,1>6[24:5],,2>6[6:1],,3<7[6:1],,,,,,8,,,,,,5h[4:1],,,,,,,,,,,,1-5[8:1],,,,,,2,,,,,,13,,,,,,
{16}4,,6-8[16:1],,5,,6,,1,2,3,4,5,6,7,8,
{8}1-3[8:1]*-4[8:1],,1-7[8:1]*-6[8:1],,1-5[8:1],,1,,
{8}12,34,56,78,1^6[8:1]/2^5[8:1],,,,
{4}8bqq8[8:1],1,1bpp1[8:1]*pp1[8:1],8,
{16}6h[16:3],,,4h[16:3],,,2h[8:1],,8h[8:1],,,1h[8:1]/7h[8:1],,,65,,
{8}34,3,65,6,24,2,57,7,
{16}1,8,2,7,1,8,3,6,1-5[8:1],8,2,7,1,,,,
{32}34,,,,2,,1,,2,,,,2,,,,56,,,,7,,8,,7,6,5,4,3,,,,
{16}12,,3,4,3,,3,,7h[8:1]/6b,,,2h[8:1]/1b,,,4h[8:1]/5b,,
{16}6,,6,,78,,2,1,2,,2,3,2,,7,8,
{16}7,,7,6,7,,2,1,2^5[8:1],,2,3,2,,7,,
{16}6h[8:1]/7h[8:1],,,,2h[8:1]/3h[8:1],,,,45,,7,8,7^4[8:1],,7,6,
{8}7,2,3h[8:1]/2h[8:1],,5h[8:1]/4h[8:1],,6h[8:1]/7h[8:1],,
{8}12,12,38,38,47,47,56,56,
{12}6,5,7,3,4,2,8,8,8,1,1,1,
(143)
{8}2h[8:5]/7h[4:1],,,,3h[8:3],,7h[8:1],,
{24}4b/8b,,1b/5b,,2b/6b,,3b/7b,,4b/8b,,1b/5b,,2,6,2,6,2,6,2,6,2,6,2,6,
(180)
{32}2,,,,,,,,78,,,,,,,,23,,,,,,,1,2,3,5,6,7,1-4[16:1]/8-5[16:1],,,
{8},1b/8b,,3h[8:3],8,7,6,5,
{16}4,,3-1[16:1],,4,,3,,8,7,6,5,4,3,2,1,
{8}8-6[8:1]*-5[8:1],,8-2[8:1]*-3[8:1],,8w4[8:1],,8,,
{8}87,65,43,21,8v5[8:1]/7-4[8:1],,78,,
{16}1bV35[4:1],,,7,,,6,,8bV64[4:1],,,2,,,3,,
{32}1bv4[8:1],,,,,,8,,,,,,7,,,,,,6,,,,,,3,4,5,6,7,8,1,2,
{8}37,7,57,7,37,3,35,3,
{48}3,,,4,,,3,,,4,,,2,,,5,,,2,,,5,,,1,,,6,,,1,,,6,,,8,,1,,2,,6,,5,,4,,
{16}8h[8:3],,,,,,7,6,1h[4:1]/5,,,,,,2,3,
{16}4/8h[4:1],,,,,,,,3h[8:1]/5h[8:1],,,3h[8:1]/5h[8:1],,,46,,
{16}78,,78,,16,,16,,25,,25,,3,4,2,5,
{48}3,,,4,,,1,,,6,,,3,,4,,3,,4,,3,,4,,3,,,,,,,,,3,,,4,,,,,,25,,,,,,1qq4[16:15]/6pp3[16:15],
(230)
{1},
{12},,,,,,,,,2,1,2,
{12}1,,3,4,2,5,1h[6:1],,6,5,7,4,
{12}8h[6:1],,2,4,3,7,5,6,3,5,2,4,
{12}1h[6:1],,6,4,8,2,6h[6:1],,3,5,1,7,
{12}3h[6:1],,7,4,6,2,5,3,6,4,7,5,
{12}8h[6:1],,3,5,4,6,1h[6:1],,7,5,6,4,
{24}8h[6:1],,,,4,,6,,2,,4,,8h[6:1],,,,,,7,6,5,,,,
{24}1,,8,,8,,2,3,4,,,,7,,8,,8,,6,5,4,,,,
{24}1,,8,,8,,2,3,4,,,,7,,2,,7,,1,,7,,8,,
{24}7,,6,,7,,5,,7,,4,,7,8,1,2,3,4,5,,2,,7,,
{24}2,,8,,2,,1,,2,,3,,2,,4,,2,1,8,7,6,5,4,3,
{12}2,,8,,8,1,8,,8,,1,1,1,1,1,1,1,1,1,1,1,1,1,1w5[0.60872##0.17392],
{12},,,,,,1b<1[0.60872##2.52212]*>1[0.60872##2.52212],,,,,,
{1},
{1},
{1},
{12}1-5[0.60872##0.08696],6,4,7,3,8,2,,,,,,
E
