&title=ホントノ
&artist=原口沙辅
&first=-0.95
&des=In_Cyan
&lv_5=13+
&inote_1=(190){4},{8},,,,,,C,
C,C,C,C,C,1/7x<4[8:1],2,
7bx/3bxh[8:3],,,5,5,,,1/2,
,8/7,,6,{2}6>4v7[4:1],
{8}2h[2:1],,,3,4,,,7/8,
,1/2,,3/4h[8:1],{4}3,{32}1bx/8bx,2bx/7bx,3bx/6bx,4bx/5bx,,,,,{4}2h[4:1]/8-6[8:1],
{8}8,3,{4}4h[4:1]/8-2[8:1],{8}8,3,
8-6[8:1],5,8,4,{4}2h[4:1]/8-2-6b[4:1],8b,
3-5[8:1],{8}3,8,{4}7h[4:1]/3-1[8:1],{8}3,7,
3-5[8:1],8,3,6,{4}4h[4:1]/3>1-7[4:1],3b,
6b-8[8:1],{8}6,4,{4}3h[4:1]/6-4[8:1],{8}6,2,
6-8[8:1],1,6,3,{4}4h[8:3]/6-4-8[4:1],6b,
2-8[8:1],{8}2,5,{4}6h[4:1]/2-4[8:1],{8}2,7,
2-4-8[4:1],5,2,6,{4}7-3b[8:1],1b/7b,
{8}8h[8:3]/2h[2:1],,,,,,,8,
,1,,7,{4}5-1[8:1],B3,
{8}4h[8:3],,,6,6,,,7/8,
,1/2,,3,{4}3-6[8:1],B1/B8/E1,
{8}7,,,1,1,,,3/4,
,5/6,,6,{4}7-3[8:1],E1/B1/E2,
{8}4,,,2,2,,,7bx/5bx,
,2bx/8bx,,4bx/3bx,{4}7bx/1bxq5b[8:1],1/6h[4:1],
{16}3,4,{8}2,{16}6,5,{8}7,{16}3,4,{8}2h[8:1],,4,
4,5/3,6/2,1/7h[8:1],{4}8>4[4:1],4>8[4:1],
{8}6,6,6,7/5,{4}8/4h[4:1],{8}1,1h[8:1],
,8/2,6/4,7/1,{4}5/3,Cf/B7/B6/B2/B3/E3/E7,
{8}3,3,2/4,1/5,{4}8/6h[4:1],{8}2-4[8:1],4-1[8:1],
1-5[8:1],5-8[8:1],,,{4}6h[4:1],B2/E3/E2,
{8}3/7>1[8:1],3/7-5[8:1],{4}3/7-3[8:1],,1-7[8:1]*-6[8:1],
1b-3[8:1]*-4[8:1],1bw5[8:1],1b,Ch[8:1],
{2}5xh[2:3],{8}3xh,2xh,{4}1xh,
7xh,8x-4[8:1],8xh,6,
{8}2b/8b,6h[8:1],5,1b/7b,3h[8:1],4,2b/8b,5h[8:1],
4,6,3>8[4:1]`7<4b[4:1],4b/8b,,,,,Cf/B8/B1/B4/B5/E5/E1,
,,4b/6b,8h[8:1],2,5b/3b,1h[8:1],
{4}7,{8}5<8[4:1]`1>4b[4:1],2b/6b,{16},,,,,,,,5,
6,5,6,4,7,4,7,3,5,3,5,2,8,2,8,
{4}1-5[8:1],1-4[8:1]*-6[8:1],,C,
4/8-2[8:1],4/8-6[8:1],4/8-2[8:1],4/8-6[8:1],
4/8pp3[2:1],5h[8:1],4-1b[8:1],4b,
2/6-8[8:1],2/6-4[8:1],2/6-8[8:1],2/6-4[8:1],
2/6<2[4:1],2h[8:1],4-1b[8:1],5/4,
7/3-1[8:1],7/3-5[8:1],7/3-1[8:1],7/3-5[8:1],
7/3qq7[2:1],6h[8:1],5-8b[8:1],5b,
{32}2b-6[8:1],3,4,5,,,,,{4}2,4,{32}8b-4[8:1],7,6,5,,,,,{4}8x,
5x/3x,{8}2xh[8:1]/6xh[8:1],{32}E2/E6,B1/B5,B8/B4,E8/E4,,,,,,,,,{4}8-6[8:1]/2-4[8:1],
2v5[8:1]/8v5[8:1],2/8,4/6,
4/6q3[4:1],3>6[4:1],B5/B4/E5,3bh[4:1],
5-7v2-8[2:1],3,3,{8}4,5,
{4}6h[4:5],{32}A1,E2,E3,A3,,,,,,,,,,,,,A8,B8,C,B4,,,,,,,,,,,,,{8}7,
8,{4}5/1h[4:1],8-6[8:1],
8/2-4[8:1],2/1-5[8:1],{2}1/5v8[8:1]*v2[8:1],
{4}3,{8}4h[8:1],5h[8:1],{4}6,2-6[8:1]/8<6[8:1],
2>4[8:1]/8-4[8:1],8-6[8:1]/2-6[8:1],{2}8/2,
{8}6/4,6/4,5,{16}3,4,{8}2,7,{4}7h[4:1],
{8}5,4/6,5/3,{16}2,1,{8}8,6,{32}6h[#0.3157959]/E5,B4,B3,E3,,,{16},
,,{8}7/5,7/5,{16}6/2h[8:1],5,{8}4,1,{4}8,
{8}5xh[16:1]/7bxh[16:1],7xh[16:1]/5bxh[16:1],5xh[16:1]/7bxh[16:1],7xz3[4:1]/5bs1[4:1],{2}5x/7b,
{8}A2f/E2/B2/E3,,,6xh,,,{4}6xh,
{16},,,6xh,,,{8}2/6xh,{4}2/6q2b[8:1],6bx,
{8}4xh,,,4xh,,,{4}4xh,
{8},4xh,,8x/4xh,{4}8x/4x>3v1<8[4:1],4x,
{16}7xh[4:3],,,5xh,,,{8}5xh,,,{4}5xh,
{16}3xh[4:3],,,4x,,,{8}4x,,,{4}4x,
{8}3xqq4[2:1]/5xpp4[2:1],,,,,,,E7/A7/A6,
,C/B5/B4,,A2/E3/A3,{2}B1/E1/E5/B5/C,
{1}3h[8:3]/4h[8:3],
5h[8:3]/7h[8:3],
6h[8:3]/4h[8:3],
4h[8:3]/3h[4:3],
{4}4h[4:3]/8h[8:3],,,C,
7/3,2h[4:1]/6h[16:5],{16},,2,6,2,6,2,6,
2,6,2,6,2,6,2,6,2,6,{8}2,{4}1bqq7>3b[8:5]`5bqq3<7[8:5],
1b/5b,{32},,,,,,,,,,,,,,,,E4/E8,B3/B7,B2/B6,E2/E6,,,,,{4}1-3[8:1],
1/5-7[8:1],5/8-2[8:1],8/4-6[8:1],
4/3-1<7[4:1],7-1>3[4:1],3,5bh[4:1],
4-2[8:1],4/8-6[8:1],8/4-1[8:1],4/8-5[8:1],
8/2h[1:1],{32}B4,C,B8,A8,,,,,,,,,,,,,A7,E7,E6,A5,,,,,{4}8-6[8:1],
8/5-1[8:1],5/7-5[8:1],7/4-8[8:1],
4/6qq5[4:1],2pp3[4:1],,B4,
6<2[4:1],{8}E3,E4,{4}E5,6<2[4:1],
{8}3x,4,{4}5x,{2}3xh[8:1]/7x-2[8:1],
{4}4-2[8:1],4/5-7-3[4:1],5/3-8[8:1],1>4[8:1],
1/6-8[8:1],6/5-1-3[4:1],5/7-3b[8:1],7b-5[8:1],
7/4-8[8:1],4/7-3[8:1],7/2-8[8:1],2/5,
5h[1:1],{32}A8,E8,E7,A6,,,,,,,,,,,,,A2,E3,E4,A4,,,,,{4}1,
{8}6h[8:1],5h[8:1],{4}4,5-2[8:1],
5-8[8:1]/1-4[8:1],5/1-6[8:1],1-3[8:1]/5-7[8:1],5/1,
4h[4:1],{8}E7,E6,{4}E5,4pp5[4:1]/3qq2[4:1],
{1}3bx/4bx,
Cf/B1/B2/B3/B4/B5/B6/B8/E6/E4/E3/E2/E1/E8/E7/E5/B7,
{8},B7/B6,,B2/E2,{16}E4,E5,{8}E6,{4}1bxv6[8:1],
1bxv4[8:1],1bx,{8}5x/6x,{16}4,5,{8}3,1x/2x,
{16}7,8,{8}6x,4,{16}3,5,{8}4xh[16:1],4xh[16:1],4xh[16:1]/7>1[8:1],4x,
{4}7bx-5[8:1],7bx,{8}4x/3x,{16}5,4,{8}6,8x/7x,
{16}2,1,{8}3x,5,{16}6,4,{8}5xh[16:1],5xh[16:1],{32}5b/A3,D3,A2,D2,{8}A1,
E
&inote_5=(190){4},{8},,,,,,C,
C,C,C,C,C,1/7x<4[8:1],2,
7bx/3bxh[8:3],,,5,5,,,1/2,
,8/7,,6,{2}6>4v7[4:1],
{8}2h[2:1],,,3,4,,,7/8,
,1/2,,3/4h[8:1],{4}3,{32}1bx/8bx,2bx/7bx,3bx/6bx,4bx/5bx,,,,,{4}2h[4:1]/8-6[8:1],
{8}8,3,{4}4h[4:1]/8-2[8:1],{8}8,3,
8-6[8:1],5,8,4,{4}2h[4:1]/8-2-6b[4:1],8b,
3-5[8:1],{8}3,8,{4}7h[4:1]/3-1[8:1],{8}3,7,
3-5[8:1],8,3,6,{4}4h[4:1]/3>1-7[4:1],3b,
6b-8[8:1],{8}6,4,{4}3h[4:1]/6-4[8:1],{8}6,2,
6-8[8:1],1,6,3,{4}4h[8:3]/6-4-8[4:1],6b,
2-8[8:1],{8}2,5,{4}6h[4:1]/2-4[8:1],{8}2,7,
2-4-8[4:1],5,2,6,{4}7-3b[8:1],1b/7b,
{8}8h[8:3]/2h[2:1],,,,,,,8,
,1,,7,{4}5-1[8:1],B3,
{8}4h[8:3],,,6,6,,,7/8,
,1/2,,3,{4}3-6[8:1],B1/B8/E1,
{8}7,,,1,1,,,3/4,
,5/6,,6,{4}7-3[8:1],E1/B1/E2,
{8}4,,,2,2,,,7bx/5bx,
,2bx/8bx,,4bx/3bx,{4}7bx/1bxq5b[8:1],1/6h[4:1],
{16}3,4,{8}2,{16}6,5,{8}7,{16}3,4,{8}2h[8:1],,4,
4,5/3,6/2,1/7h[8:1],{4}8>4[4:1],4>8[4:1],
{8}6,6,6,7/5,{4}8/4h[4:1],{8}1,1h[8:1],
,8/2,6/4,7/1,{4}5/3,Cf/B7/B6/B2/B3/E3/E7,
{8}3,3,2/4,1/5,{4}8/6h[4:1],{8}2-4[8:1],4-1[8:1],
1-5[8:1],5-8[8:1],,,{4}6h[4:1],B2/E3/E2,
{8}3/7>1[8:1],3/7-5[8:1],{4}3/7-3[8:1],,1-7[8:1]*-6[8:1],
1b-3[8:1]*-4[8:1],1bw5[8:1],1b,Ch[8:1],
{2}5xh[2:3],{8}3xh,2xh,{4}1xh,
7xh,8x-4[8:1],8xh,6,
{8}2b/8b,6h[8:1],5,1b/7b,3h[8:1],4,2b/8b,5h[8:1],
4,6,3>8[4:1]`7<4b[4:1],4b/8b,,,,,Cf/B8/B1/B4/B5/E5/E1,
,,4b/6b,8h[8:1],2,5b/3b,1h[8:1],
{4}7,{8}5<8[4:1]`1>4b[4:1],2b/6b,{16},,,,,,,,5,
6,5,6,4,7,4,7,3,5,3,5,2,8,2,8,
{4}1-5[8:1],1-4[8:1]*-6[8:1],,C,
4/8-2[8:1],4/8-6[8:1],4/8-2[8:1],4/8-6[8:1],
4/8pp3[2:1],5h[8:1],4-1b[8:1],4b,
2/6-8[8:1],2/6-4[8:1],2/6-8[8:1],2/6-4[8:1],
2/6<2[4:1],2h[8:1],4-1b[8:1],5/4,
7/3-1[8:1],7/3-5[8:1],7/3-1[8:1],7/3-5[8:1],
7/3qq7[2:1],6h[8:1],5-8b[8:1],5b,
{32}2b-6[8:1],3,4,5,,,,,{4}2,4,{32}8b-4[8:1],7,6,5,,,,,{4}8x,
5x/3x,{8}2xh[8:1]/6xh[8:1],{32}E2/E6,B1/B5,B8/B4,E8/E4,,,,,,,,,{4}8-6[8:1]/2-4[8:1],
2v5[8:1]/8v5[8:1],2/8,4/6,
4/6q3[4:1],3>6[4:1],B5/B4/E5,3bh[4:1],
5-7v2-8[2:1],3,3,{8}4,5,
{4}6h[4:5],{32}A1,E2,E3,A3,,,,,,,,,,,,,A8,B8,C,B4,,,,,,,,,,,,,{8}7,
8,{4}5/1h[4:1],8-6[8:1],
8/2-4[8:1],2/1-5[8:1],{2}1/5v8[8:1]*v2[8:1],
{4}3,{8}4h[8:1],5h[8:1],{4}6,2-6[8:1]/8<6[8:1],
2>4[8:1]/8-4[8:1],8-6[8:1]/2-6[8:1],{2}8/2,
{8}6/4,6/4,5,{16}3,4,{8}2,7,{4}7h[4:1],
{8}5,4/6,5/3,{16}2,1,{8}8,6,{32}6h[#0.3157959]/E5,B4,B3,E3,,,{16},
,,{8}7/5,7/5,{16}6/2h[8:1],5,{8}4,1,{4}8,
{8}5xh[16:1]/7bxh[16:1],7xh[16:1]/5bxh[16:1],5xh[16:1]/7bxh[16:1],7xz3[4:1]/5bs1[4:1],{2}5x/7b,
{8}A2f/E2/B2/E3,,,6xh,,,{4}6xh,
{16},,,6xh,,,{8}2/6xh,{4}2/6q2b[8:1],6bx,
{8}4xh,,,4xh,,,{4}4xh,
{8},4xh,,8x/4xh,{4}8x/4x>3v1<8[4:1],4x,
{16}7xh[4:3],,,5xh,,,{8}5xh,,,{4}5xh,
{16}3xh[4:3],,,4x,,,{8}4x,,,{4}4x,
{8}3xqq4[2:1]/5xpp4[2:1],,,,,,,E7/A7/A6,
,C/B5/B4,,A2/E3/A3,{2}B1/E1/E5/B5/C,
{1}3h[8:3]/4h[8:3],
5h[8:3]/7h[8:3],
6h[8:3]/4h[8:3],
4h[8:3]/3h[4:3],
{4}4h[4:3]/8h[8:3],,,C,
7/3,2h[4:1]/6h[16:5],{16},,2,6,2,6,2,6,
2,6,2,6,2,6,2,6,2,6,{8}2,{4}1bqq7>3b[8:5]`5bqq3<7[8:5],
1b/5b,{32},,,,,,,,,,,,,,,,E4/E8,B3/B7,B2/B6,E2/E6,,,,,{4}1-3[8:1],
1/5-7[8:1],5/8-2[8:1],8/4-6[8:1],
4/3-1<7[4:1],7-1>3[4:1],3,5bh[4:1],
4-2[8:1],4/8-6[8:1],8/4-1[8:1],4/8-5[8:1],
8/2h[1:1],{32}B4,C,B8,A8,,,,,,,,,,,,,A7,E7,E6,A5,,,,,{4}8-6[8:1],
8/5-1[8:1],5/7-5[8:1],7/4-8[8:1],
4/6qq5[4:1],2pp3[4:1],,B4,
6<2[4:1],{8}E3,E4,{4}E5,6<2[4:1],
{8}3x,4,{4}5x,{2}3xh[8:1]/7x-2[8:1],
{4}4-2[8:1],4/5-7-3[4:1],5/3-8[8:1],1>4[8:1],
1/6-8[8:1],6/5-1-3[4:1],5/7-3b[8:1],7b-5[8:1],
7/4-8[8:1],4/7-3[8:1],7/2-8[8:1],2/5,
5h[1:1],{32}A8,E8,E7,A6,,,,,,,,,,,,,A2,E3,E4,A4,,,,,{4}1,
{8}6h[8:1],5h[8:1],{4}4,5-2[8:1],
5-8[8:1]/1-4[8:1],5/1-6[8:1],1-3[8:1]/5-7[8:1],5/1,
4h[4:1],{8}E7,E6,{4}E5,4pp5[4:1]/3qq2[4:1],
{1}3bx/4bx,
Cf/B1/B2/B3/B4/B5/B6/B8/E6/E4/E3/E2/E1/E8/E7/E5/B7,
{8},B7/B6,,B2/E2,{16}E4,E5,{8}E6,{4}1bxv6[8:1],
1bxv4[8:1],1bx,{8}5x/6x,{16}4,5,{8}3,1x/2x,
{16}7,8,{8}6x,4,{16}3,5,{8}4xh[16:1],4xh[16:1],4xh[16:1]/7>1[8:1],4x,
{4}7bx-5[8:1],7bx,{8}4x/3x,{16}5,4,{8}6,8x/7x,
{16}2,1,{8}3x,5,{16}6,4,{8}5xh[16:1],5xh[16:1],{32}5b/A3,D3,A2,D2,{8}A1,
E
