&title=GET HOT! ~DJ ZONE DAN-D~
&artist=Sammy Sound Team
&first=0.2
&des=Ragna
&wholebpm=142
&demo_seek=30.5
&demo_len=12.7
&des_5=Ragna
&lv_5=13
&inote_5=(142){16}
2,,4,,5,,7h[4:1],,,,4,6,3,5,2,4,
1b^4[8:1]*^6[8:1],,,,1bw5[8:1],,,,1b,,,,2b/8b,,,,
3h[2:1],,,,4,,,,5h[16:7],,,,4,,,3,
,3,5,,4h[8:3],,6,6h[16:5],,,,,5b,,,,
7h[2:1],,,,6,,,,5h[16:7],,,,6,,,7,
,7,5,,6h[8:3],,4,4h[16:5],,,,,5b,,,,
3h[2:1],,,,4,,,,5h[16:7],,,,4,,,3,
,3,5,,2h[8:3],,4,4h[16:5],,,,,3b,,,,
5h[16:7],,,,4,,,3,,3,5,,4,6,3,5,
2h[2:1],,,,,,,,8,1,8,,17,,26,,
3h[16:3]/5,,,4,2,,53,,6h[16:3]/4,,,5,7,,46,,
3-5[8:1]/5-7[8:1],,,,5V38[4:1]/3,,,,8,,7,,6,,5,,
1h[8:1],,4,3,,6,5,,7^4[8:1]/4,,,,2h[4:1],,,,
3-7[8:1],,,,1h[16:3],,,8,,8,1,,28,,37,,
6h[16:3]/4,,,5,7,,46,,3h[16:3]/5,,,4,2,,53,,
6^4[8:1]/4^2[8:1],,,,4<1[4:1]/6,,,,1,,2,,3,,4,,
8h[8:1],,5,6,,3,4,,2-6[8:1]/5,,,,8h[4:1],,,,
5bv8[8:1]*v2[8:1],,,,5b,,,,2bv5[8:1]/8bv5[8:1],,,,2b/8b,,,,
3-7[8:1],,7-1[8:1],,3,,,,5w1[8:1],,,,5b,,,,
7-5[8:1],,5-1[8:1],,7,,,,4w8[8:1],,,,4b,,,,
1-5[8:1],,5-7[8:1],,1,,,,8w4[8:1],,,,8b,,,,
2b/6b,,45,,2b/7b,,,,8b,8,8,,1b,1,1,,
5-7[8:1],,3-5[8:1],,5-1[8:1],,3,,8w4[8:1],,,,8b,,,,
3-1[8:1],,5-3[8:1],,3-7[8:1],,5,,1w5[8:1],,,,1b,,,,
7-5[8:1],,3-7[8:1],,7-1[8:1],,3,,4w8[8:1],,,,4b,,,,
2h[8:1]/6h[8:1],,,,8b-4[8:1]/1b-3[8:1],,,,8b-6[8:1]/1b-5[8:1],,,,8b/1b,,,,
3h[4:1],,,,4h[4:1],,,,5h[4:1],,,,6h[16:3],,,3,
,3,5,,4V63[4:1],,6,6h[16:3],,,,,6b,,,,
7h[4:1],,,,6h[4:1],,,,5h[4:1],,,,4h[16:3],,,7,
,7,5,,6V47[4:1],,4,4h[16:3],,,,,4b,,,,
3h[4:1],,,,4h[4:1],,,,5h[4:1],,,,6h[16:3],,,3,
,3,5,,2V41[4:1],,4,4h[16:3],,,,,4b,,,,
5h[4:1],,,,4h[16:3],,,6,,6,4,,5,3,6,2,
7h[2:1],,,,,,,,1,8,1,,28,,37,,
6h[16:3]/4,,,1,7,,26,,3h[16:3]/5,,,8,2,,73,,
6-8[8:1]/4-6[8:1],,,,4/6V41[4:1],,,,1,,8,,7,,6,,
2h[8:1],,5,4,,7,6,,8^5[8:1]/5,,,,3h[4:1],,,,
4-8[8:1],,,,2h[16:3],,,7,,7,8,,17,,26,,
3h[16:3]/5,,,8,2,,73,,6h[16:3]/4,,,1,7,,26,,
3^1[8:1]/5^3[8:1],,,,5/3<8[4:1],,,,8,,1,,2,,3,,
7h[8:1],,4,5,,2,3,,1-5[8:1]/4,,,,6h[4:1],,,,
4bv1[8:1]*v7[8:1],,,,4b,,,,7bv4[8:1]/1bv4[8:1],,,,7b/1b,,,,
5^8[8:1],,8^3[8:1],,5,,,,4w8[8:1],,,,4b,,,,
5^2[8:1],,2^7[8:1],,5,,,,5w1[8:1],,,,5b,,,,
2^5[8:1],,5^8[8:1],,2,,,,1w5[8:1],,,,1b,,,,
7b/3b,,45,,2b/7b,,,,1b,1,1,,8b,8,8,,
4^1[8:1],,7^4[8:1],,4-8[8:1],,7,,1w5[8:1],,,,1b,,,,
6^1[8:1],,2-6[8:1],,6^3[8:1],,2,,8w4[8:1],,,,8b,,,,
1-5[8:1],,6^1[8:1],,1^4[8:1],,6,,5w1[8:1],,,,5b,,,,
3h[8:1]/7h[8:1],,,,8b-4[8:1]/1b-3[8:1],,,,8b-6[8:1]/1b-5[8:1],,,,8b/1b,,,,
{1}2b>8[4:3]/7b<1[4:3],,E
