&title=荒誕兒戲
&artist=在虛無中永存
&first=0
&des=FaNMOU
&lv_5=13+
&des_5=FaNMOU
&inote_5=
(240){4},,,,,,,,{1}5h[4:23]/4h[4:27],
,,,,,{4}5,
5,5,5,
6,7/5,4,5/3,
6-4[8:1],4,3-5[8:1],5,
{16}6/4,,,7,5,,,6,{2}4-2[8:1]*-6[8:1],
{16}1-5[8:1],,,1,{4}8,{16}7-4[8:1],,,7,{4}8,
{16}2-5[8:1],,,2,{4}1,7-4[8:1],8,
{16}2,,,2,5,,,5,3,,,3,4,,,4,
5,,,5,6,,,6,{2}7<2[4:1],
{16}8<5[8:1],,,8,{4}1,{16}3>8[8:1],,,3,{4}4,
{16}6-2[8:1],,,6,4w8[8:1],,,4b,,,,,,,,,7,
,,7,1,,,1,8,,,8,2,,,2,
7,,,5,7,,,1,7,,,5,7,,,1,
6,,,6,4,,,4,5,,,5,3,,,3,
4,,,2,4,,,1,{2}4<6[8:1]*>2[8:1],
{16}1,,,1,7,,,7,2,,,2,8,,,8,
3,,,5,3,,,1,3,,,5,3,,,1,
4,,,4,6,,,6,3,,,5,2,,,4,
{4}3-1[8:1],4-8[8:1],3-1[8:1],4-8[8:1],
2-5[8:1],1,7-3[8:1],8,
{16}1,,,1,5,,,5,{4}2-5[8:1],6-1[8:1],
{16}4-8[8:1],,,4,{4}6,{16}7-4[8:1],,,7,{4}1V75[4:1],
5V31[4:1],1V75[4:1],5V31[4:1],1,
{16}7,,,7,8,,,8,6,,,6,1,,,1,
5,,,5,2,,,2,{4}4-6[8:1],3-1[8:1],
{16}7-4[8:1],,,7,{4}8,{16}1-5[8:1],,,1,{4}8,
{16}6,,,4w8[8:1],5,,,4b,,,,,,,,,7,
,,7,8,,,8,6,,,6,5,,,5,
{4}4-8[8:1],{16}3>6[4:1],,,3,,,,,{4}5h[4:1],
{16}4,,,4,5,,,5,6,,,6,7,,,7,
{4}8p4[8:1],{16}1>7[4:1],,,1,,,,,,,,,2,
,,2,1,,,1,3,,,3,4,,,4,
{4}5h[4:1],{16}6<8[8:1]*>3[8:1],,,6,,,,,,,,,2,
,,2,1,,,3,4,,,2,1,,,3,
{4}4-6[8:1],3-1[8:1],4-7[8:1],3-8[8:1],
{16}6-3[8:1],,,6,2-7[8:1],,,2,8-5[8:1],,,8,3-6[8:1],,,3,
{4}1h[16:7],{16}5,,,5-1[8:1],,,,,,,,,8<5[8:1],
,,8,1>4[8:1],,,1,8p4[8:1],,,8,1q5[8:1],,,1,
{4}6h[16:7],{16}4,,,4p8[8:1],,,,,,,,,5,
,,1,5,,,1,5,,,1,5,,,1,
{4}5-1[8:1],4,5-1[8:1],6,
{16}7,,,5,6,,,1,8,,,3,{4}4<7[8:1],
4>1[8:1],4w8[8:1],{2}4b,
{4}1/6qq1[4:3],{8},,,,2,3,
{2}4h[2:1],3<6[4:1],
{4}2pp5[4:3],{8},,,,8,7,
{2}6h[2:1],5>1[4:1],
{4}8qq5[4:3],,,4,
4>2[8:1],5,6<8[8:1],5,
4h[4:1],3h[4:1],2h[4:1],1h[4:1],
{2}8q1[2:1],7<2[2:1],
{4}1,,,8,
{1}1/7qq4[4:3],
{2}2<7[4:1],6q3[4:1],
{4}4q5[16:9],5,6,7,
{1}8>8[2:3]*<8[2:3],
,1/7q1[2:1],
8/2q4[2:1],
{16}6,,,6,5,,,7,4,,,7,8,,,6,
1,,,6,1,,,6,{4}1-5[8:1],{16}7,,,7,
4,,,5,3,,,8,1,,,5,3,,,4,
{4}2-5[8:1],6,7-4[8:1],3,
1-5[8:1],1/8,6-1[8:1],6/5,
2-7[8:1],2/4,5-1[8:1],5/3,
2-6[8:1],1-5[8:1],8-4[8:1],7-3[8:1],
5>2[8:1],5<8[8:1],5,1,
8-4[8:1],2,7-5[8:1],4,
1-5[8:1],6,2-4[8:1],5,
5<1[4:1],1>5[4:1],5<1[4:1],1>5[4:1],
5<1[4:1],1>5[4:1],5<1[4:1],1,
{16}3,,,5,3,,,1,3,,,5,3,,,1,
3,,,3,5,,,6,{2}4>1[8:1]*-6[8:1],
{4}8/7-4[8:1],1,1/2-5[8:1],8,
4/6-1[8:1],2,{2}4b/8b,
{1}5<5[4:27],
4h,
3h,
2h,
1h,
8h,
7h,
{4}6h,{8},,,,5,5,
{4}4/6-8[8:1],1,4/6-8[8:1],1,
4/6-8[8:1],1,4/6-8[8:1],1,
5/3-1[8:1],8,5/3-1[8:1],8,
5/3-1[8:1],8,5/3-1[8:1],8,
4/6-8[8:1],1,4/5-1[8:1],2,
5/3-1[8:1],8,5/4-8[8:1],7,
6-2[8:1],5-1[8:1],4-8[8:1],3-7[8:1],
1<6[8:1],1>4[8:1],1-5[8:1],1,
{16}3,,,3,5,,,5,7,,,7,5,,,5,
4,,,4,5,,,5,6,,,6,5,,,5,
4,,,4,6,,,6,4,,,4,2,,,2,
4,,,4,5,,,5,{2}4<7[8:1]*>2[8:1],
{16}1,,,1,7,,,7,1,,,1,3,,,3,
1,,,1,8,,,8,7,,,7,8,,,8,
1,,,1,7,,,7,1,,,1,3,,,3,
{4}1-5[8:1],8-6[8:1],1-5[8:1],8-6[8:1],
4-8[8:1],5,6-1[8:1],4,
{16}2,,,2,8,,,8,1-5[8:1],,,1,{4}6,
{16}7-4[8:1],,,8,{4}7,{16}2-5[8:1],,,1,{4}2,
{16}8<5[8:1],,,1,{4}8>3[8:1],8-4[8:1],8,
{16}3,,,3,5,,,5,7,,,7,5,,,5,
4,,,4,3,,,3,{4}4-2[8:1]*-6[8:1],4,
{16}1-5[8:1],,,7,{4}1,{16}6-1[8:1],,,4,{4}6,
{16}2,,,8,1w5[8:1],,,8,{2}1b,
{16}4,,,4,6,,,6,1,,,1,7,,,7,
2-6[8:1],,,2,1-5[8:1],,,1,8-4[8:1],,,8,7-3[8:1],,,7,
5,,,5,6,,,1,8,,,4,6,,,1,
7-4[8:1],,,7,{4}8,{16}2-5[8:1],,,2,{4}1,
{16}6,,,6,5,,,5,8,,,8,1,,,1,
7-4[8:1],,,7,1-5[8:1],,,1,8-4[8:1],,,8,2-5[8:1],,,2,
6,,,6,4,,,7,1,,,6,4,,,5,
3-8[8:1],,,7,7,,,4,6-1[8:1],,,2,{4}2,
8-4[8:1],8/1,3-8[8:1],3/4,
7-4[8:1],7/8,3-8[8:1],3/4,
6-2[8:1],1q5[8:1],7v4[8:1],3-8[8:1],
5-1[8:1],2v7[8:1],8p4[8:1]*q4[8:1],8,
3-8[8:1],5-1[8:1],2q6[8:1],7v4[8:1],
1-4[8:1],5v8[8:1],3-6[8:1],7-2[8:1],
1>5[4:1],5V71[4:1],1>4[4:1],4,
5q1[8:1],{16}5-7[8:1]*>3[8:1],4,,,{2}5,
{4}8V64[4:1],4>8[4:1],8-5[4:1],5,
4-8[8:1],{16}4-2[8:1]*<6[8:1],5,,,{2}4,
{4}7-5[8:1]/1-4[8:1],1/7,8-5[8:1]/2-4[8:1],2/8,
1-5[8:1],1w5[8:1],{2}1b,
E
