&title=ki ki kai kai
&artist=sasakure.UK
&first=0
&des=ku ku sai sai
&lv_5=13+
&inote_5=(150)
{1},
{8}
3/5,,,,4/6,,{12}4,5,3,{8}4h[4:1],,,,2/6,,,,
6/4,,,,4/5,,{12}6,5,7,{8}6h[4:1],,,,4/8,,,,
2h[4:1]/4h[4:1],,,,3h[4:1]/5,,{12}5,4,6,{8}5h[4:1],,,,4h[4:1]/6h[4:1],,,,
7h[4:1]/5h[4:1],,,,2h[4:1]/4h[4:1],,,,
{16}45,,3s7[16:7],7s3[16:6],,,,,,,,,,,,,
{8}
1/5,,,,3,,,,8/4,,,,6,,,,
4/3q5[8:5],,,,8,,,,5/6p3[8:5],,,,2,,,,
1/5,,,,23,,,,48,,,,67,,,,4>1[8:3],,,,5<8[8:3],,,,
1h[2:1],,,,7h[8:1],,3h[8:1],,4-6[8:1]/3,,,,{12}3,4,5,6,,3/7,
{16}3-5[8:1]/7-1[8:1],,,,,,,,5/1-5[8:1],,,,,,,,
3/4-6[8:1],,,,,,,,{12}3,4,5,6,,48,
{8}
4h[4:1]/8h[4:1],,,,2h[8:1],,6h[8:1],,
6/5-3[8:1],,,,{12}6,5,4,3,,26,
{18}
2-8[8:1]/6-4[8:1],,,,,,,,,8>3[8:1]/4<7[8:1],,,,,,,,,
6/5-3[8:1],,,,,,,,,{12}6,5,4,3,,1/5,
{16}
1h[8:1]/5h[8:1],,,,3h[8:1]/7h[8:1],,,,2h[8:1]/6h[8:1],,,,8b/4b,,,,
75,,,75,,,7h[16:4]/5,,,,5h[8:1],,,4h[8:1]/6h[8:1],,,5>3[8:1]/3,,,,8b,,,,
24,,,24,,,2h[4:1]/4,,,,4,,4-8[8:1]/2-4[8:1],,,,2/4,,,,,,,,
7/5,,,75,,,5/7h[4:1],,,,8,,1,,2,,3-8[8:1],,,4,,,5-2[8:1],,,6,,,7-4[8:1],,,8,,,
1-6[8:1],,,2,,,3,,,3h[16:15]/7h[16:15],,,,,,,,,,,,,,,,,,,,,
2-5[8:1]/6,,,6,,,6,,7h[4:1]/4-8[8:1],,,,,,,,
6/1-5[8:1],,,6,,,6,,7h[4:1]/4>1[8:1],,,,,,,,
6/8-4[8:1],,,6,,,6,,3qq1[8:1]/7qq5[8:1],,,,,,,,
6<1[8:1]/2>5[8:1],,,,2/6,,,,2h[8:1],,,,6h[8:1],,,,
7-4[8:1]/3,,,3,,,3,,2-5[8:1]/5-1[8:1],,,,,,,,
7/4-8[8:1],,,7,,,7,,6<1[8:1]/1>4[8:1],,,,,,,,
8-4[8:1]/3,,,3,,,3,,2/5<8[8:1],,,2,,,2,,
1-5[8:1]/8-4[8:1],,,,,,,,2h[8:1]/3h[8:1],,,,7h[8:1]/6h[8:1],,,,
1b-6[8:1],,,,3-1[8:1],,,,5h[4:1],,,,{12}8,8,7,{16}1>4[8:1],,,,6<1[8:1],,,,
4h[4:1],,,,2,,,,
8b-3[8:1],,,,6b-8[8:1],,,,
4h[4:1],,,,{12}1,1,2,{16}8<5[8:1],,,,3q4[8:3]*q5[8:3],,,,,,,,,,,,
6b-1[8:1],,,,6/5,,,,27,,,,{12}3,4,2,{16}2b-5[8:1],,,,1/2,,,,
3pp5[8:1]/7qq5[8:1],,,,,,,,1>3[8:1]/8,,,,1/6<8[8:1],,,,2>5[8:1]/6,,,,6<1[8:1]/2,,,,
6/3<2[4:1],,,,3b,,,,,,,,,,,,
7h[8:1],,5,6h[16:3],,,2h[8:1],,4,3h[16:3],,,1,,8,,76,,,41,,,76,,5p1[8:1]/8p4[8:1],,,,,,,,
4h[16:3],,,2h[16:3],,,1,,5h[16:3],,,7h[16:3],,,8,,
1/6,,2,,3/7,,6-8[8:1],,4-1[8:1],,6,,4b,,,,
7h[8:1],,8,6,,,2h[8:1],,1<6[8:1],3,,,4,,2,,
1>4[8:1]/5<8[8:1],,4/8q5[16:3],,,,,,,,,,26,,
3,,4-8[8:1],,5,,3,,2,,1/7,,5,,1v4[8:1]/7v4[8:1],,3,,1qq8[6:1]/7pp8[6:1],,,,,,,,
3h[8:1]/5h[8:1],,,,
4h[8:1]/8h[8:1],,,,2b-4[8:1]/6b<1[8:1],,,,6/2,,,,7-5[8:1]/3>8[8:1],,,,
3/7p2[6:1],,,,2q7[6:1],,,,7p2[6:1],,,,2,,,,8,,,,
1<6[8:1]/3<6[8:1],,,2,,,,,8<5[8:1]/2>5[8:1],,,1,,,,,
1>4[8:1],,7qq4[8:3],,1,,7,,,,,,8b,,,,
8>3[8:1]/3-5[8:1],,,,8/3,,,,1<6[8:1]/6-4[8:1],,,,1/6q3[6:1],,,,
3p6[6:1],,,,6-1[8:1],,,,2-5[8:1],,,,8,,,,7/6-4[8:1],,6/7,,8-6[8:1],,8,,2-8[8:1],,2,,
5-3[8:1],,5,,8,,1,,2/5,,,,4/7,,,,
4-2[16:1]/8<6[16:1],,,,8-5[8:1]/4v1[8:1],,,,8<6[16:1]/4-2[16:1],,,,
8-5[8:1]/4v1[8:1],,,,8v3[8:1]/4-7[8:1],,,,8b<1[4:3]/4b,,,,,,,,,,,,,,,,
8h[8:1],,,,7h[8:1],,,,6h[8:1],,,,5h[8:1],,,,
6h[8:7]/1h[8:1],,,,2h[8:1],,,,3h[8:1],,,,4h[8:1],,,,
4h[8:1]/8h[8:1],,,,3h[8:1]/7h[8:1],,,,2b-4[8:1]/6b-4[8:1],,,,,,,,
5h[8:1]/4,,,4,5h[8:1],,4,,5h[8:1],4,,,5h[8:1]/4,,,4,
6h[8:1],,4,,6h[8:1],4,,,6h[8:1]/4,,,4,6h[8:1],,4,,
7h[8:1],4,,,7h[8:1]/4,,,4,8-4[8:1],,4z8[8:5],,8b<1[8:4],,,,
,,,,,,,,,,,,18,,81,,
2b/7b<2[2:1],,,,,,,,,,,,8h[8:1],,,,7/2>7[2:1],,,,,,,,,,,,
1q3[4:3],,,,5,,,,6,,,,7,,,,8qq3[4:3],,,,4,,,,3,,,,2>5[6:1],,,,,,,,
6,,,,6,,5,,7-4[8:1],,4-7[8:1],,,,,,3,,,,3,,4,,5-2[8:1]/2-5[8:1],,,,,,,,
8h[4:1]/7-2[8:1],,,,,,,,4h[4:1]/3-6[8:1],,,,,,,,7,,8,,1,,2,,7-2[8:1]/3-6[8:1],,,,,,,,
1/5-3[8:1],,,,7,,6,,5-3[8:1]/3-1[8:1],,,,,,,,
8/4-6[8:1],,,,2,,3,,{12}4,4,5,5<1[4:1],,1,{16}1>5[4:1],,,,5<1[4:1],,,,1,,,,
5V71[4:1],,,,1V35[4:1],,,,5,,,,{12}6,6,5,4b,,,
{16}7/3-7[8:1],,,,6,,5,,4-6[8:1]/8-2[8:1],,,,,,,,
7-3[8:1]/3,,,,2,,1,,{12}8,8,4,{16}4<7[8:1],,,,4/8>3[8:1],,,,
8/5<8[8:1],,,,5/1>4[8:1],,,,1/6h[8:5],,,,5,,5,,4,,4,,{12}6,5,4,3b/6b,,,
{16}
24,,3,2,,,2h[4:1]/4,,,,4h[8:1],,,3h[8:1]/5h[8:1],,,
6/4<6[8:1],,,,1b,,,,
75,,6,7,,,7h[4:1]/5,,,,
5,,7-5[8:1]/5-1[8:1],,,,7/5-3[8:1]*-2[8:1],,,,,,,,
24,,3,2,,,2h[4:1]/4,,,,
1,,8,,7,,
(100)
{4}6h[4:1]/5b>8[1024:1887],,7h[4:1],,8h[4:1],,
{8}1<2[64:176],,,,1h[4:1],,,,2h[4:1],,,,3h[4:1],,,,
4>5[64:176]*v5[6:1],,,,7v6[6:1],,,,1v8[6:1],,,,2v3[6:1],,,,
7<3[64:99],,2,,
{8}1,1,8,,7,7,8,,2,2,1w5[4:1],,,,,
37,3/7<3[4:1],,7h[8:1],,7<3[4:1],7,3,,
2q6[4:1],,2h[8:1],,2q6[4:1],2,6,,
8>3[4:1],7,6,,8,7<4[4:1],6,,8,7,6v5[8:1],5v3[8:1]*v4[8:1],,,,,
1/2V48[4:1],,2h[8:1],,2V46[4:1],2,6,,
7V51[4:1],,7h[8:1],,7-5[8:1],7-3[8:1],3qq7[8:3],,,,,,6,5h[4:1],4,2,
1/4,6,5<4[8:3]/8,3,1h[2:1],,,,
(150)
{16}5,,,5h[16:21]/1-4[16:13],,,,,,,,,,,,,,,,,,,,,
4,,3,,2/4,,5,,6,,5/7,,4,,2h[4:1]/5,,,,4,3,5,4,6,5,7,,8,,1,,
6h[4:1]/2,,2,,2,,2,,7h[4:1]/3,,3,,3,,3,,8h[4:1]/4,,4,,4,,4,,
5/1<5[4:1],,5/1,,4,,3,,2,,
{24}3,4,3,4,3,4,3,4,3,4,3,4,3,4,3,4,3,4,3,4,3,4,3,4,3,4,3,4,3,4,3,4,3,4,3,4,
2bv5[8:1],,,,,,6b-1[8:1],,,,,,
{16}6b/4,,,,4,,,,4,,,,4,,,,4/5,,,,4,,,,7,,7,5,,5,6,,
3,,,,34,,,,2,,,,34,,,,
1,,,,34,,,,2,,2,4,,4,3,,5h[4:1]/4,,,,6,,,,4/5h[4:1],,,,7,,,,
5h[4:1]/4,,,,8,,,,7,,7,5,,5,4,,4-2[8:1],,,,5-7[8:1],,,,
4-1[8:1],,,,5-8[8:1],,,,1-4[8:1],,,,1b-6[4:1]/5v2[4:1],,,,,,,,,,,,
3h[8:1],,4v7[8:1]*-1[8:1],2,,,4,,,,68,,75,,46,,35,,4,1,,,2/3,,1-5[8:1]/4-8[8:1],,
,,,,,,
5h[16:3],,,7h[16:3],,,8,,1/4h[16:3],,,2h[16:3],,,1,,
3/8,,7,,2/6,,3-1[8:1],,7-4[8:1],,3,,7b,,,,
2h[8:1],,1,3,,,7h[8:1],,8>3[8:1],6,,,5,,7,,
8<5[8:1]/4>1[8:1],,5q2[16:3]/1q6[16:3],,,,,,,,,,73,,6,,
5-1[8:1],,4,,6,,7,,2/8,,4,,2pp5[8:3]/8,,6,,2/8<5[8:1],,,,,,,,
4-2[8:1]/5-8[8:1],,,3b/6b,,,,,
7h[8:1]/5,,3,,7h[8:1]/5,,3,,6h[8:1]/5,,2,,6h[8:1]/5-2[8:1],,2,,
6-1[8:1],,1,,5-2[8:1],,2V48[4:1],,7-5[8:1],,7,,,,,,
2/4,,8,,2/4,,1,,7/5,,8,,7/5,,1,,2/6,,3/7,,8<5[8:1],,4>1[8:1],,8-4[8:1],,4,,8b,,,,
2h[8:1]/4,,6,,2h[8:1]/4,,6,,3h[8:1]/4,,7,,3h[8:1]/4-7[8:1],,7,,
3-8[8:1],,8,,4-7[8:1],,7V51[4:1],,2-4[8:1],,2,,,,,,
7/5,,1,,2/4,,8,,6b-3[8:1]/3b<6[8:1],,,,,,,,1/2,,3/4,,
6/5>2[8:1],,8<5[8:1],,5-1[8:1],,8,,2b,,,,
8h[8:1]/3,,5,,1h[8:1]/6,,4,,7h[8:1]/2,,5,,
3h[8:1]/8-5[8:1],,5,,4-1[8:1],,1,,
8-5[8:1],,5<7[10:1],,4-1[8:1],,1>3[10:1],,,,,,
8,,6,,5h[8:1]/4-7[8:1],,2,,1,,3,,4h[8:1]/5-2[8:1],,7,,
8,,6,,1,,3,,45,,18,,3b/6b,,,,
1h[8:1]/6,,4,,8h[8:1]/3,,5,,2h[8:1]/7,,4,,
6h[8:1]/1-4[8:1],,4,,5-8[8:1],,8,,
1-4[8:1],,4>2[10:1],,5-8[8:1],,8<6[10:1],,,,,,
1,,3,,5-3[8:1]/4h[8:1],,7,,8bp4[8:1],,8bq4[8:1],,,,,,
5,,7,,2/1,,4,,56,,18,,
3v8[8:1]/7-4[8:1],,,,
{32}3b/7b,,,,,,,,2v5[8:1]/6-1[8:1],37,48,,,,,,2b/6b,,,,,,,,
4v1[8:1]/8-5[8:1],73,26,,,,,,4b/8b,,,,,,,,
