&title=Felis
&artist=M2U
&first=0
&des=GDTape
&des_5=GDTape
&lv_5=13+
&inote_5=(155){4},{8},,,,,,3,
{16}6,5,{8}6,4,{16}6,5,{8}6,5,{16}6,5,
{8}6,4,3/7,8,{4}1-5[8:1]/2-6[8:1],2/1,
{8}3/4,2,5,4/7,8,5,{16}6,4,,4,
{4}5-1[8:1],{8}2,3h[4:1],,8,{4}4b,
{16}6-4[8:1],5,{8}6,3,3,2-6[8:1],2,8,8,
7,5,8/4,7,2/6-4[8:1],{16},,,,1,2,
{8}3,{16}7,6,{8}5/1,2,8-4[8:1],8,3,3,
5,2,{16}6,5,{8}6,{4}7-4[8:1]/4-8[8:1],4/7,
{16}1-5[8:1],5,{8}1,6,6,7<4[8:1],7,{16}4,3,2,1,
{8}8>3[8:1],{16}3,4,5,6,7,8,{8}1-5[8:1],4,1,2,
6,{16}2,4,{8}3,{16}7,5,{8}6,{16}3,4,2,5,1,6,
{4}8b-4[8:1],{16}8b/2,,,3,{8}3-8[8:1],4,{4}6,
{8}7,{16}2,1,{8}2,3,8,{16}2,1,{8}2,3,
1,{16}2,1,{8}2,3,8,7,6/2,1,
2,{16}7,8,{8}7,6,1,{16}7,8,{8}7,6,
8,{16}7,8,{8}7,6,1,{16}8,1,{8}7,2,
3,{16}5,5,{8}5,6,4,{16}5,5,{8}5,6,
5,{16}5,5,{8}5,6,4,3,2/6,7,
6,{16}4,4,{8}4,3,5,{16}4,4,{8}4,3,
4,{16}4,4,{8}4,3,5,{16}4/6,4/6,{4}4/6,
7<4[4:1],4>1[4:1],1<6[4:1],6>3[4:1],
3>8[4:1],8<5[4:1],{2}4-8[8:1],
{4}2-5[4:1],5-8[4:1],8-3[4:1],3-6[4:1],
6-1[4:1],1-4[4:1],{2}5<8[8:1],
{4}2>5[4:1],5<8[4:1],8>3[4:1],5-1[8:1],
{8},,8/4,7/3,{4}2-5[8:1]/6-1[8:1],6/2,
{8}3/7,4,5,6/2,7,8,{16}2,1,2,1,
{8}3,{16}6,5,{8}6,3,{16}6,5,{8}6,{16}3,4,3,4,
{8}2,{16}6,5,{8}7,8/4,{16}2-6[8:1],1,3,8,{4}2b,
{8}1/7,{16}8,8,{8}8,1/7,{16}8,8,8,8,7,1,7,1,
8,7,6,5,4/8,1,2,3,8,4,8,4,7,3,{8}7,
2/8,{16}1,1,{8}1,8/2,{16}1,1,1,1,2,8,2,8,
1,2,3,4,5/1,8,7,6,1,5,1,5,2,6,{8}2,
7/1,{16}8,8,{8}8,1/7,{16}8,8,8,8,7,1,6,2,
5,3,6,2,7,3,8,4,1,5,8,4,7,3,{8}7,
2/8,{16}1,1,{8}1,8/2,{16}1,1,1,1,2,8,3,7,
4,6,3,7,2,6,1,5,8,8,4,4,{4}2b,
7<4[4:1],4>1[4:1],1<6[4:1],4-8[8:1],
{8},,1/5,2/6,{4}7-4[8:1]/3-8[8:1],3/7,
{8}6/2,5,4,3/7,2,1,{16}7,8,7,8,
{8}6,{16}3,4,{8}3,2V48[4:1]/5-7[8:1],,,,,{4}5/1-5[8:1],
{8}1/5,7,8-2[8:1],4,8-4[8:1],3,
{16}8,,,1,{8}1,2/5,3,{16}6,5,{8}7-4[8:1],8,
{16}2/7,,,1,{8}1,2/4,5-1[8:1],6,7-5[8:1],8,
2,3,4,3,{4}2-5[8:1]/4-8[8:1],2/4,
{16}7,5,7,5,{8}7,{16}1,6,1,6,{8}1,{16}7,3,7,3,
{8}7,{16}3,5,2,6,1,7,{8}8-4[8:1],1,2-5[8:1],1,
6,{16}7,7,{8}5-1[8:1],4,3,{16}2,2,{8}8<5[8:1],1,
{4}2-8[8:1]*-4[8:1],2-6[8:1],{8}7,7,{4}8b,
{8}6,{16}3,4,{8}3,2,5,{16}3,4,{8}3,2,
4,{16}3,4,{8}3,2,5,6,7/3,4,
3,{16}6,5,{8}6,7,4,{16}6,5,{8}6,7,
5,{16}6,5,{8}6,7,4,{16}5,4,{8}6,3,
2,{16}8,8,{8}8,7,1,{16}8,8,{8}8,7,
8,{16}8,8,{8}8,7,1,2,3/7,6,
7,{16}1,1,{8}1,2,8,{16}1,1,{8}1,2,
1,{16}1,1,{8}1,2,8,{16}1/7,1/7,{4}1/7,
2>5[4:1],5<8[4:1],8>3[4:1],3<6[4:1],
6<1[4:1],1>4[4:1],{2}5-1[8:1],
{4}7-4[4:1],4-1[4:1],1-6[4:1],6-3[4:1],
3-8[4:1],8-5[4:1],{2}4>1[8:1],
{4}7<4[4:1],4>1[4:1],1<6[4:1],4-8[8:1],
{8},,1/5,2/6,{4}7-4[8:1]/3-8[8:1],3/7,
{8}6/2,5,4,3/7,2,1,{16}7,8,7,8,
{8}6,{16}3,4,{8}3,6,{16}3,4,{8}3,{16}6,5,6,5,
{8}7,{16}3,4,{8}2,1/5,{16}7-3[8:1],8,6,1,{4}7b,
{8}8/2,{16}1,1,{8}1,8/2,{16}1,1,1,1,2,8,2,8,
1,2,3,4,5/1,8,7,6,1,5,1,5,2,6,{8}2,
7/1,{16}8,8,{8}8,1/7,{16}8,8,8,8,7,1,7,1,
8,7,6,5,4/8,1,2,3,8,4,8,4,7,3,{8}7,
{4}8b/2b,{16}1,1,1,1,1,1,,,2,4,3,4,
{8}2h[8:1],{16}4,4h[8:1],,1,{8}1h[8:1],{16}5-7[8:1],5,,3,{8}3,2,
{16}1-5[8:1],8,2,7,{4}1b,{8}6/4,{16}3,4,,2,{8}1,
{16}4,5,,8,7,1,6,2,7,7,4,4,{8}8v3[8:1]*v5[8:1],2,
{4}8b,{16}2,4,1,8,{8}2h[8:1],{16}7,5,8,1,{8}7h[8:1],
{16}2,5,3,4,{8}1h[8:1],{16}7,7,8,6,1,5,2,2,6,6,
{8}1b,{16}7,8/7,,2,{8}1/2,{16}6,5,{8}7/4,{16}3,4,{8}2/5,
{16}8,1,{8}2/7,{16}3,4,2,4,1,5,2,6,3,7,4,8,
{4}5>1[4:1],1<5[4:1],5>1[4:1],1,
7<3[4:1],3>7[4:1],{2}5-1[8:1],
{8}8b/2b,{16}7,1,6,8,{8}5h[8:1],{16}7,6,8,5,1,4,2,3,
1,1,1,1,3,3,3,3,5w1[8:1],5,5,5,,,,,{4}7<4[4:1],
4>1[4:1],1<6[4:1],4-8[8:1],
{8},,1/5,2/6,{4}7-4[8:1]/3-8[8:1],3/7,
{8}6/2,5,4,3/7,2,1,{16}7,8,7,8,
{8}6,{16}3,4,{8}3,2bV48[4:1]/5b-7[8:1],
E
