&title=雑踏、僕らの街
&artist=トゲナシトゲアリ
&first=0.02
&des=カザリア
&lv_6=14
&inote_1=(171)
{1},,
{4}1b,1,1,1,1b,1,1,1,1b,1,1,1,1b,1,1,1,1b,1,1,1,1b,1,1,1,1b,1,1,1,1b,1,1,1,1b,1,1,1,1b,1,1,1,1b,1,1,1,1b,1,1,1,1b,1,1,1,1b,1,1,1b,1,1,1b,1,1,1b,1,1,1b,1,1,1b,1,1,1b,1,1,1b,1,1,1b,1,1,1b,1,1,1b,1,1,1b,1,1,1b,1,1,1b,1,1,1b,1,1,1b,1,1,1,1b,1,1,1,1b,
&inote_5=
&inote_6=(171)
{1},
{8},,,,,7v4[8:1],4<1>6[2:3],7,
{1}Cf,
{1},
{16}2hx[8:7],,,1,,,8,,,7,,,6,,5,,
{16}5h[8:7],,,4,,,3,,,2,,,1,,2,,
{16}3h[8:1],,5,4h[8:1],,6,3h[8:1],,7,4h[8:1],,8,3h[8:1],,7,,
{16}4h[8:1],,6,3h[8:1],,7,4h[8:1],,8,3h[8:1],,7,4h[8:1],,6,,
{16}4,5,4,5,3,6,3,6,2,7,2,7,1,8,1,8,
{1}1x-5[8:15],
{4},,1b-5b[8:1],1b,
{16}7hx[8:1],,4,6,3,5,2,,1hx[8:1],,4,2,5,3,6,,
{16}7hx[8:1],,4,6,3,5,2,,1hx[8:1],,4,2,5,3,6,,
{16}4b,6,4,6,3,7,3,7,2,8,2,8,1,8,1,8,
{24}1,2,3,8,7,6,2,3,4,7,6,5,1,2,3,8,7,6,1b-5[8:1]/5,,,,,,
{4}1b,,,3h[4:3],
{16},,,,,,7x,6x,5xh[8:7],,,,,,,,
{16},,,,Cf,,,2xh[8:1]/C,,,7x/C,,3x/C,,,,
{4}6h[4:3],,,4h[4:3],
{16},,,,,,5x,6x,7xh[8:7],,,,,,,,
{16},,,,Cf,,,3xh[8:1]/C,,,6x/C,,2x/C,,,,
{8}1qq4[8:3],,8,7,6,5,5-8[4:1],,
{8}4,4,3,3,2h[4:1],,8,1/7h[4:1],
{8},5,46,3,28,7,54,2,
{8}8pp5[8:3],,1,2,3,4,4-1[4:1],,
{8}5,5,6,6,7h[4:1],,1,8/2h[4:1],
{8},4,53,6,{16}17,,2,,3,4,3,4,
{16}2,5,2,5,{8}1h[8:1],,1h[8:1]/B6,,2h[8:1],,
{8}2h[8:1]/B7,,3,4,5,6,{16}7,1h[8:1],,8,
{8}2h[8:1],7,6h[8:1],,6h[8:1]/B3,,5h[8:1],,
{8}5h[8:1]/B2,,3,4,5,6,{16}8,7,8,7,
{16}1,6,1,6,{8}2bhx[8:3],7,6,5bhx[8:3],3,4,
{8}4bh[8:3],6,7,8bh[8:3],1,2,3b,3,
{8}4b,4,5b,5,{16}4b,5,4,5,3b,6,3,6,
{16}2b,7,2,7,1b,8,1,8,1xh[2:1],,8x,,8x,,8x,,
{16}8x,,2,1,,7,8,,{32}1x-5[8:1]/8x,2x/7x,3x/6x,4x/5x,,,,,{8}8,7,
{16}6,,3,4,,6,5,,{32}1x/8x-4[8:1],2x/7x,3x/6x,4x/5x,,,,,{8}1,2,
{8}3-5[8:1],3,6-2[8:1],6,1^4[4:1],,4^7[4:1],,
{4}7^2[4:1],{8}5-8[8:1],5-2[8:1],,,,6h[8:1],
{8}5h[8:1],4h[8:1],3h[8:1],,{16}3,4,3,4,2,5,2,5,
{16}3-7[8:1],,4h[8:1],,3,,,,5,6,5,6,4,7,4,7,
{16}5-1[8:1],,6h[8:1],,5,,,,2^5[8:1],,,5,2,,6,,
{16}7v4[8:1],,,4,7,,3,,2,,3,5,,4,6,,
{16}4,5,4,5,3,6,3,6,4b^1[8:1],,,5,5,,6,,
{16}7,8,,2,1,,18,,{32}1x-5[8:1]/8x,2x/7x,3x/6x,4x/5x,,,,,{8}8,7,
{8}6-4[8:1],6,3-7[8:1],3,8^5[4:1],,5^2[4:1],,
{8}2^7[4:1],,4-1[8:1],4-7[8:1],,,,3h[8:1],
{8}4h[8:1],5h[8:1],6h[8:1],,{16}5,6,5,6,4,7,4,7,
{16}5-1[8:1],,6h[8:1],,5,,,,3,4,3,4,2,5,2,5,
{16}3-7[8:1],,4h[8:1],,3,,,,2^5[8:1],,,5,2,,6,,
{16}7v4[8:1],,,4,7,,3,,2bh[16:15],,8,,8,,8,,
{32}8,7,6,5,4,3,,1,8,7,6,5,4,3,,1,{16}8h[8:1],,1,7h[8:1],,1,6h[8:1],,
{8}5h[8:1],4h[8:1],3h[8:1],2h[8:1],{16}1h[8:1],,8,2h[8:1],,8,3h[8:1],,
{8}4h[8:1],5h[8:1],6h[8:1],7h[8:1],{16}8h[8:1],,1,7h[8:1],,2,6h[8:1],,
{8}3h[8:1],5h[8:1],4h[8:1],6h[8:1],{16}1h[8:1],,8,2h[8:1],,7,3h[8:1],,
{8}6h[8:1],4h[8:1],5h[8:1],3h[8:1],{16}8h[8:1],,1,1,8h[8:1],2,2,,
{16}8h[8:1],,3,3,8h[4:1],,2,,1h[8:1],,8,8,1h[8:1],7,7,,
{16}1h[8:1],,6,6,1h[4:1],,7,,{8}8,,18,18,
{8}27,27,36,36,4x-8[8:15]/5x,,,,
{1},
{4}4b-8b[8:1],4b,{8}1h[8:1],2h[8:1],3h[8:1],4h[8:1],
{8}5h[8:1],6h[8:1],7h[8:1],8h[8:1],{16}1,8,1,8,2,7,2,7,
{16}3,6,3,6,4,5,4,5,4hx[8:1],,,3hx[8:1]/5hx[8:1],,,2hx[8:1]/6hx[8:1],,
{16},1hbx[8:1]/7hbx[8:1],,,2hbx[8:1]/8hbx[8:1],,,4hbx[8:1]/3hbx[8:1],,,4hb[8:1]/6hb[8:1],,,1hb[8:1]/7hb[8:1],,,
{16}8hb[8:1]/1hb[8:1],,,8bw4[0.26##0.26]b,,,8b,,,,,,,,
E
