&title=キャンディークッキーチョコレート
&artist=はろける
&first=0.54
&des_5=キャンディークッキーホシノちゃん
&lv_5=13+
&des=キャンディークッキーホシノちゃん
&inote_5=(173)
{4}D6,D6/A6,D6/A6/A5,,
{8}7h[4:15]/8,,B7,,,1,,C,8-6b[8:1],,,,2-4b[8:1],,,,8,,B7,,,1,,C,2pp4b[8:1],,2<8b[8:1],,,,,,
{8}7x/8,,7x/B7,,7x,1,7x,C,8-6b[8:1]/7x,,7x,,2-4b[8:1]/7x,,7x,,
{16}1,8,7,6,5,4,3,2,7,8,1,2,3,4,5,6,
{4}7h[2:1]/2pp4b[8:1],2<8b[8:1],2,A6h[16:1]/B6h[16:1]/Chf[16:1]/B3h[16:1]/A3h[16:1],
{8}8<6b[8:1],,2,2,1p5b[8:1],3,,4,3/8<6b[8:1],,2,2,2/1p5b[8:1],,1,,
{8}8<6b[8:1],,2,2,1p5b[8:1],3,1,3,4b-8[8:1],,4bw8[8:1],,4b,,A6h[16:1]/B6h[16:1]/Ch[16:1]/B3h[16:1]/A3h[16:1],,
{8}4pp6[8:1],,5,5,3>8[8:1],7,,6,4pp6[8:1],,5,5,3>8[8:1],,7-5[8:1]*v4[8:1],,
{8}7b,,,3,2/E5,1,8/E4,7,6b-2b[8:1],,1bw5[8:1],,1b,,D3h[4:1],,
{8}7-5v8-6[4:3],,3,,2,2,1,,8xw4[8:1],,,,1xw5b[8:1],,,,
{8}6x-8v5-7[4:3],,3,,2,2,1,,8xw4[8:1],,,,1xw5b[8:1],,,,
{8}8<7p6>5[4:3],,3,3,2,,C,,8xw4[8:1],,,,1xw5b[8:1],,,,
{8}2pp4[8:1],,6pp8[8:1],6,3-6[8:1],3,7-2[8:1],7,4,,1<5[8:1]*>5[8:1],,1,,A2/D3/A3,,
{8}2x-4v1-3b[4:3],,6,,7,7,8,,1xw5b[8:1],,,,8xw4[8:1],,,,
{8}3x-1v4-2b[4:3],,6,,7,7,8,,1xw5b[8:1],,,,8xw4[8:1],,,,
{8}1>2q3<4b[4:3],,6,6,7,,C,,8<5b[8:1],,8>3b[8:1],,8w4b[8:1],,8,,
{16}2b/6b,,7,5,6h[8:5],,4,,3,,2,,1,,8,,
{8}7b-5[8:1]/8b-4[8:1],,7b-3[8:1]/8b-2[8:1],,7b/8b,,A6h[16:1]/B6h[16:1]/Ch[16:1]/B3h[16:1]/A3h[16:1],,
{8}D2/E2f/B2/D8/E8/B7,,3xV52-6[8:3],,,,,,
{8}A1/D1/D2/A5/D5f/A4,,6x-2V48[8:3],,,,,,
{8}A1/D2f/A2/A7/D7/A6,,4xq1q6[8:3],,,,,,
{4}D8h[8:1]/A7h[8:1]/D7h[8:1]/A6h[8:1],B8h[8:1]/B7h[8:1]/B6h[8:1]/E6h[8:1],E2h[8:1]/B2h[8:1]/B3h[8:1]/B4h[8:1],A2h[8:1]/D3h[8:1]/A3h[8:1]/D4h[8:1],
{4}5bxw1b[8:1],,4bxw8[8:1],,6/5bx-8b[8:1],,5/4bx-1[8:1],,
{8}5bx-7b[8:1],5-8b[8:1],,,4bx-2[8:1],4-1[8:1],,,8bx-6b[8:1],,8bx/1bx-5b[8:1],,1bx/2bx-4b[8:1],,Cf,,
{8}8b-3b[8:1],7,5>2[8:1],6,7-5[8:1],8,7-1b[8:1],2,3-5b[8:1],4,8-4[8:1],7,3q7[8:1],2,1,,
{8}2>4b[8:1],1,5p1[8:1],6,7-3[8:1],8,7,1,2x,2/6,3x/7x,4/8,1xv6[8:1]/5x-2[8:1],,Cf,,
{8}1b-6b[8:1],2,4<7[8:1],3,2-4[8:1],1,2-8b[8:1],7,6-4b[8:1],5,1-5[8:1],2,6p2[8:1],7,8,,
{8}7<5b[8:1],8,4q8[8:1],3,2-6[8:1],1,2,8,7x,7/3,6x/2x,5/1,8xv3[8:1]/4x-7[8:1],,A6h[16:1]/B6h[16:1]/Chf[16:1]/B3h[16:1]/A3h[16:1],,
{8}8<6[8:1],,2,2,1p5[8:1],3,1,4,8-4[8:1],,2V48[8:3]/8,2,5-7[8:1],,5,,
{8}1>3[8:1],,7,7,8q4[8:1],6,8,5,
{4}5bx-1[8:1],5bx/7bx-3[8:1],1bx<6[8:1]*>4[8:1],A1f,
{8}1>3b[8:1],,7,7,8q4b[8:1],6,8,5,1-5b[8:1],,7V51b[8:3]/1,7,4-2b[8:1],,4,,
{8}8<6b[8:1],,8,2,3/1p5b[8:1],4,3/1,2,1bx-3[8:1]*-4[8:1],,1bx-7[8:1]*-6[8:1],,1bxw5b[8:1],,Cf,,
{24}A8/D1/E1,A7,A6,A5,A4h[48:1],A3,A2,A1,D1h[48:1]/E1,D8,D7/E7,D6,D5h[48:1],D4/E4,D3,D2,,,E1h[8:1]/B5h[8:1]/B4h[8:1]/E5h[8:1],,,,,,
{4}2x>3p6[4:1],6<7p2[4:1],,,8v6>4[4:1],4>8[4:1],,,1V35[4:1],5V71[4:1],,,4V68[4:1],8V24[4:1],,,
{4}7x<6q3b[4:1],3>2q7b[4:1],,,1v3<5b[4:1],5<1b[4:1],,,8V64b[4:1],4V28b[4:1],,,5V31b[4:1],1V75b[4:1],
{8},C,E8,E4,
{8}8bx,,7x/B7,,7x,1,7x,C,8-6[8:1]/7x,,7x,,2-4[8:1]/7x,,7x,,8/7x,,B7/7x,,7x,1,7x,C,2pp4[8:1]/7x,,2<8[8:1]/7x,,2/7xw3[8:1],,,,
{8}1bx/2bx,,2x/B2,,2x,8,2x,C,1-3b[8:1]/2x,,2x,,7-5b[8:1]/2x,,2x,,1/2x,,B2/2x,,2x,8,2x,C,7>1b[8:1]/2x,,7s3b[16:3]/2x,,7/4x-8b[8:1],,A4h[32:1],,
{8}1bx/7bx<6>5>4[8:1],3>2<1<8[8:1]/5,7h,3bx-7[8:1],,1<8<7<6[8:1]/3h,2hx,3>2v5[8:1]/A1,,3bx/8bxv3[8:1],7<6-4[8:1],8h,A7h[1:0],,1bxh[8:1]/5bxh[1:0],,
{8}4bx/6bxv1[8:1],3,2>3-5[8:1]/6xh,,A2/8<7v4[8:1],,8xh/3xh,2bx,5x-1[8:1],6x,A5h[1:0]/7<6>5>4[8:1]*>8>1>2[8:1],,7bxh[1:0],,
{32}B7,C,B3,A3,,,,,
{8}8bx/2bx>3<4<5b[8:1],6<7>8>1b[8:1]/4,2h,6bx-2b[8:1],,8>1>2>3b[8:1]/6h,7hx,6<7v4b[8:1]/A8,,6bx/1bxv6b[8:1],2>3-5b[8:1],1h,A2h[1:0],,8bxh[8:1]/4bxh[1:0],,
{8}A6h[8:1]/D6h[8:1]/A5h[8:1]/2h[8:1],,3/7,E6h[8:1]/B5h[8:1]/E5h[8:1]/1h[8:1],,2/6,3/7,4/8,D1h[8:1]/A1h[8:1]/D2h[8:1]/D6h[8:1]/A5h[8:1]/D5h[8:1],,3V17[2:1]/7,3/7V53b[8:3],,,,,
{8}A7/D7/A3/D3f,,,,,,,,2v4-6[2:1],,,,,,,,1v3-5b[2:1],,,,,,,,
{4}7x-2[8:1],3x-6[8:1],8x-3[8:1]*-5[8:1],,
{4}A6h[4:11]/B6h[4:11]/E7h[4:11]/D7h[4:11]/2bv3[8:1],,1bv4b[8:1],,2b>4[8:1],,1bq5b[8:1],,2b-4[8:1],,1b-5b[8:1],,
{4}8bx-6b[8:1],1bx-5b[8:1]/8bx,2bx-4b[8:1]/1bx,Cf,
{8}8bV24b[8:1],7,5v2[8:1],6,7-4[8:1],8,7>1b[8:1],2,3-5b[8:1],4,8-4[8:1],7,3s7[4:1],2,1,,
{8}2-4b[8:1],1,5V31[8:1],6,7v4[8:1],8,7,1,2x,2/6,3x/7x,4/8,1xv6[8:1]/5x-2[8:1],,Cf,,
{8}1bV75b[8:1],2,4v7[8:1],3,2-5[8:1],1,2<8b[8:1],7,6-4b[8:1],5,1-5[8:1],2,6z2[4:1],7,8,,
{8}7-5b[8:1],8,4V68[8:1],3,2v5[8:1],1,2,8,A4h[4:3]/B4hf[4:3],6,7,8,1-5b[8:1],,,,
{8}1b-5b[8:1],2,7-4b[8:1],6,3>1b[8:1],2,6-2b[8:1]/A3hf[1:0],5,6,3,4V25-1b[8:3],5,6-8b[8:1],7,A6hf[1:0],,
{8}2-4b[8:1],1,5p1b[8:1],6,7<4[8:1],8v3[8:1],A7hf[1:0],8,5x,6/2,7x/3x,8,1x-5[8:1]/B4hf[4:1]/A4h[4:1],,,,
{8}8b-4[8:1],7,2-5[8:1],3,6<8[8:1],7,3-7[8:1]/A6hf[1:0],4,3,6,5V74-8[8:3],4,3-1[8:1],2,A3hf[1:0],,
{8}7-5[8:1],8,4q8[8:1],3,2>5[8:1],1v6[8:1],A2hf[1:0],1,4x>8b[4:1],,8<4b[4:1],,4w8b[8:1],,Chf[1:0],,
{32}1bx/5h[4:7],2,3,4,,6,7,8,1,2,3,4,,6,7,8,1,2,3,4,,6,7,8,1,2,3,4,,6,7,8,1,2,3,4,,6,7,8,1,2,3,4,,6,7,8,1,2,3,4,,6,7,8,1-5b[8:1],,,,,,,,
{8}8<6b[8:1],,4,4,1p5b[8:1],3,1,3,4b-8[8:1],,4bw8[8:1],,4b,,A6h[16:1]/B6h[16:1]/Ch[16:1]/B3h[16:1]/A3h[16:1],,
{8}4pp6[8:1],,5,5,3>8[8:1],7,,6,4pp6[8:1],,5,5,3>8[8:1],,7-5[8:1]*v4[8:1],,
{8}7b,,,3,2/E5,1,8/E4,7,6b-2b[8:1],,1bw5[8:1],,1b,,D3hf[4:1],,
{8}8b,,,4,3,2,6,7,1x-6[8:1],,6x,,
{384}7x-5[8:1],8x-4b[8:1],,,,,,,,,,,,,,,,,,,,,,,,,,,,,,,,,,,,,,,,,,,,,,,,,,,,,,,,,,,,,,,,,,,,,,,,,,,,,,,,,,,,,,,,,,,,,,,
{4}A7hf[1:0]/A8hf[1:0],
E
