&title=炎歌 -ほむらうた-
&artist=Hiro/森山愛子
&first=0.09
&lv_5=1
&des_5=
&inote_5=
(125){4},
E
&lv_6=14
&des_6=Killer°
&inote_6=
(108){4},{16},,,,,,,,,,,,2>4[32:3],
7<5[32:3],1pp3[32:3],8qq6[32:3],2x,7x,1x,8x,{4}1xs5b[8:1],{64}1b,Cf,,,,,,,,,,,,,,,{8}3-5[8:1],
5-1[8:1]/6-8[8:1],3/8-4-6b[8:1],6-2[8:1],,3V17[8:1],4,3,
6-4[8:1],4-8[8:1]/3-1[8:1],6/1-5-3b[8:1],3-7[8:1],,6V82[8:1],5,6,
3-7[8:1],7-1[8:1]/4-6[8:1],3/6-2-4b[8:1],4-8[8:1],,1-5[8:1],1,1,
6-2[8:1],2-8[8:1]/5-3[8:1],6/3-7-5b[8:1],5-1[8:1],,8-4[8:1],8,8,
3-6[8:1],2-7[8:1],3/1-5[8:1],2,{4}1x<6[8:1]*>4[8:1],1,
{8}6-3[8:1],7-2[8:1],6/8-4[8:1],7,{4}8x>3[8:1]*<5[8:1],8-4[8:1],
{16}8-6[8:1],1,1,1,8-4[8:1],2,2,2,8<3[8:1],1,1,1,8b-2[8:1],2,2b-7-3-6-4-8b[8:5],2,
{1}8x,
{16}7-4[8:1],6,{8}5,7/3,3,{16}2,4,{8}2,{16}1/5qq8[16:5],2,3/7,4,
{4}5/1,7w3[8:1],,E1/E5,
{16}2-5[8:1],3,{8}4,2/6,6,{16}7,5,{8}7,{16}8/4pp1[16:5],7,6/2,5,
{4}4/8,2w6[8:1],,E1/E5,
{16}7-1[16:1],5h[16:1],6h[16:1],5h[16:1],7,5h[16:1],6h[16:1],5h[16:1],{4}8h[8:1],{16}1,7,2,6,
5<8[8:1]/3>8[8:1],5/3,{8}5/3,,,7h[4:1]/Ch[4:1],{16},,,,6>3[16:5],6-3[4:1],
{8}E8/E2,,,,,2-4[8:1],1,8/2,
7h[16:3],{16}5,5,{8}7h[16:3],{16}5b,4b,{8}3b/7h[16:3],{16}1,1,{8}1-5[8:1],8/2,
1/8-4[8:1],{16}7,7,{8}8/2v7[8:1],{16}3-5[8:1],3,{8}3/2-8[8:1],3,{16}2-6-4-8[2:1],4,4,4,
2,,,,,,,2,{2}2w6[8:1],
{8}8/1-5[8:1],{16}2,2,{8}1/7v2[8:1],{16}6-4[8:1],6,{8}6/7-1[8:1],6,{16}7-3-5-1[2:1],5,5,5,
7,,,,,,,7,{2}7w3[8:1],
{16}6V84[8:1],5,7,5,{4}6,{16}3V15[8:1],4,2,4,{4}3,
{16}4/6,3,2/8,7,{4}4-2[8:1]/6-8[8:1],4/6,{8}8/4,{16}8-6[32:3],8-2[32:3],
{8}8-4[32:3],{16},,,,1-3[32:3],1-7[32:3],{8}1-5[32:3],{16},,,,6-1[32:3],6-3[32:3],
{1}6b-4-8-6-2b[4:3],
{8}3-5[8:1],5qq3[8:1],1qq7[8:1]/3<6[8:1],7-1[8:1],{2}1pp2[4:1],
{8}5h[4:1],{16}1-3[8:1],8,{8}7,5/1V75[8:1],,4/1,4q1[8:1],1q5[8:1],
5<7[8:1],7q3[8:1],{4}8-4[8:1],8x-5[8:1]*-6[8:1],8-2[8:1]*-3[8:1],
{1}8-4pp5b[2:1]*-4qq3b[2:1],
{8}6-4[8:1],4pp6[8:1],8pp2[8:1]/6>3[8:1],2-8[8:1],{2}8qq7[4:1],
{8}4h[4:1],{16}8-6[8:1],1,{8}2,4/8V24[8:1],,5/8,5,{16}5bV71[8:1],7bV13[8:1]*V13[8:1],
{8}1bV35b[8:1],{16},,,,7bV13[8:1],1bV35[8:1]*V35[8:1],{8}3bV57b[8:1],{16},,,,1bV35[8:1],3bV57[8:1]*V57[8:1],
{2}5bV71b[8:1],Cfh[4:1],
{16}2-4[32:3],6-8[32:3],2-5[32:3],6-1[32:3],2x,6x,2x,6x,4x,4x,3/5,3/5,6,6,7/4,7/4,
{8}3b/8b-4[8:1],6/4-7-5[8:1],3/8-3[8:1],3-1[8:1],8qq6[8:1],6<8[8:1],8-4-2b[8:1],2>5b[8:1],
1-6b[8:1],1-7b[16:1],1xq5v2>4[8:3]*p5v8<6[8:3],1x,{2}1bx,
{8}1v6[8:1]/5-2[8:1],6<8[8:1],{4}5/1v4[8:1],{8}1<6[8:1],{16}7,8,{8}5/1-3v4V68b[2:1],3,
{2}1b/Cf,{8}A6/E6/A5,{16}4,4,{8}A2/E3/A3,{16}4,4,
{8}6b/1b-5[8:1],3/5-2-4[8:1],6/1-6[8:1],6-8[8:1],1pp3[8:1],3>1[8:1],1-5-7b[8:1],7<4b[8:1],
8-3b[8:1],8-2b[16:1],8xp4v7<5[8:3]*q4v1>3[8:3],8x,{2}8bx,
{8}8v3[8:1]/4-7[8:1],3>1[8:1],{4}4/8v5[8:1],{8}8>3[8:1],{16}2,1,{8}4/8-6v5V31b[2:1],6,
8b/Cf,,,,,8p3[32:3]/3>8[32:3],{4}4<7[32:3]/7q4[32:3],
,8bh[4:1]/5bh[8:1],{8}E4f/A4/A3/D4,1q6[32:3]/6<1[32:3],{4}5>2[32:3]/2p5[32:3],
,1bh[2:1]/4bh[8:1],{8}E6f/A5/A6/D6,{16},,,,6b-2[8:1]/2b-6[8:1],7b/3b,
{8}8b/4b,{16},,,,8b/4b,7b/3b,{4}6bpp5>3[4:3]/2bpp1<7b[4:3],6b/2b,
{8},,,,,,5b/1b,{16}2,3,
{8}4h[8:1],2h[8:1],8h[8:1],6h[8:1],4h[8:1],6h[8:1],8h[8:1],2h[8:1],
3<5[8:1],5q1[8:1]/6<8[8:1],3/8q6b[8:1],6q2[8:1],,3x-1<8[8:1],4,3,
6>4[8:1],4p8[8:1]/3>1[8:1],6/1p3b[8:1],3p7[8:1],,6x-8>1[8:1],5,6,
3p7[8:1],7>1[8:1]/4<6[8:1],3/6q4b[8:1],4q8[8:1],,1p5[8:1],1,1,
6q2[8:1],2<8[8:1]/5>3[8:1],6/3p5b[8:1],5p1[8:1],,8q4[8:1],8,8,
3-6[8:1],2-7[8:1],3/1-5[8:1],2,{4}1xqq7[8:1]*pp3[8:1],1,
{8}6-3[8:1],7-2[8:1],6/8-4[8:1],7,{4}8xpp2[8:1]*qq6[8:1],8,
{16}1,5,2,6,3,7,4,8,5-3[32:3],1-7[32:3],5-2[32:3],1-6[32:3],5xV71V35<5b[1:2],1x,5x,1x,
{1}A5f,
E
