&title=好运来(Haocore Mix)
&artist=Yearly年利 vs StartDoge-始犬
&first=0.03
&des=EndER末影
&lv_7=接
&inote_7=(210){1},
{16},,,36,,4,5,,{4}3h[8:2]/6h[8:2],,
3h[8:6]/6h[8:8],,,,3b,,{8}45,45,{16}3,6,3,,
{4}1b>5b[8:4]/8hxb[8:3],,8hxb[8:3],,
{16}7hxb[8:1]/5hb[8:1],,,6hxb[8:1]/4hb[8:1],,,3hb[8:3]/5hxb[8:3],,{4},,
8b<4b[8:4]/1hxb[8:3],,1hxb[8:3],,
1hxb[8:6]/8hb[8:6],,,,
{8}8xbh[8:3]/1hb[8:2],,,2hb[8:2],8xbh[8:3],,2hb[8:1],,
1b/8hxb[8:2],,,8hxb[8:1]/2b,,8hxb[8:2]/2b,,,
1hxb[8:3]/8b<5b[12:1],,,,1hxb[8:3]/8b<5b[12:1],,,,
{12}1xb,1xb,2xb,2xb,3xb,3xb,4xb<7b[8:1],,,,,,
{8}1hxb[8:3]/8b<4b[8:4],,,,1hxb[8:3],,,,
{6}1hxb[6:2]/3b,5b,7b,{8}1hxb[8:1]/8hb[8:1],,1hxb[8:1]/8hb[8:1],,
8hxb[8:3]/1b>5b[8:4],,,,8hxb[8:3],,,,8hxb[8:6]/1hb[8:6],,,,,,,,
8bh[16:5],,{16},1b,,8hb[16:4],,,,1b,,,,,
{4}3b-8b[8:2],3b/4b,6b-1b[8:2],6b/5b,
{16}3,,3,,7,,7,,2,6,2,6,1,8,1,8,
1hb[8:6],,,,8b,,,,8b-5b[8:1],,8b,,8b,,,,
{8}4h[8:2],,5,4,5,4,4h[8:2],,5,5,4,4,5,4,5,4,
5h[8:2],,{16}4,5,4,,4h[8:3],,,5,,,5,,
4,,5,4,5<8[8:1],,4,,5>2[8:1],,,,5,,,,
47,,6,5,6,,47,,52,,3,4,3,,52,,
16,,7,8,7,,16,,83,,2,1,2,,83,,
1,,1,,1,8,1,8,1,,8,1,8,1,8,1,
A6/D6/A5/E6/B6/B5,,,,A3/D4/A4/E4/B3/B4,,,,B7/B8/B1/B2/C,,,,18,,18,,
2-5[8:1],,1,,2,,7,,2-5[8:1],,8,,2,,6,,
2-5[8:1],,1,,2,,7,,2-5[8:1],,8,,2,,6,6,
{8}3>7>3[8:6],,5h[8:1],,5h[8:1],,5h[8:1],,
5-8[8:1],5,1-4[8:1],1,7-4[8:1],7,3,3,
2-5[8:1],1,2,7,1-4[8:1],6,1b,,
7-4[8:1],8,7,2,8w4[8:1],3,8b,,
6<2[8:5],,3h[8:1],,{16}3,4,5,,3,4,5,,
3-6[8:1],,,,
3-1-4[8:2],,,,4-7-5[8:2],,,,,,,,
8-5[8:1],,3,,8,,2,,7-4[8:1],,1,,7,,2,,
8-5[8:1],,1,,8,,3,,7-4[8:1]*-2[8:1],,1,,7,,,,
5-8[8:1],,2,,5,,3,,6-1[8:1],,4,,6,,3,,
4-1[8:1],,7,,4,,6,,3-8[8:1],,5,,36,,6,,
{8}6-8-5[8:3],,2,,2,,{16}3,4,3,4,
{8}3-1-5[8:3],,6,,6,,{16}7,8,7,8,
{8}16,,38,,27,27,27,,
{8}B7/B6/E6/B5/E5,,E6,B5,B4,E4,E8/E1f/E2/B2/C/E5,,
7b>8-5>3v6[8:4],2,2,1,1,,,2,
2bz6b[8:4],2,5,5,5,,,,
5b,6,4,3,1v6[8:1]*v4[8:1]/2,,1b,,
7b-5b[8:1]/8b-4b[8:1],,7b-3b[8:1]/8b-2b[8:1],,7b/8b,,,5,
35,6,4>1[8:1]/5p8[8:1],45,4b/5b,,,7,
71,2,3q8[8:1]/4<7[8:1],34,3b/4b,,E8/C/E4,,
4-1[8:1],4,5-8[8:1],5,3-8[8:1],3,6,6,
2,,1-5b[8:1]/8-6b[8:1],18,1b-3b[8:1]/8b-4b[8:1],,1b/8b,,
5xb>4-7<6-1b[8:4]/1xb<8-3>2-5b[8:4],,,,,,,3,
2,1-5b[8:1],8-4b[8:1],1xb,8xb,,,,
6,7,8>3b[8:2],1,3xb<8b[16:3]`8xbp3[16:3],,8,,
1xb-7b[8:1]/2xb-6b[8:1],,1xb-5b[8:1]/2xb-4b[8:1],,1b/2b,,,6,
7-5[8:1],8-2[8:1],7-3[8:1],8,7,,,3,
2-4[8:1],1-7[8:1],2-6[8:1],1,2,,,,
45,45,36,36,27,{16},1,8,,27,,
{8}27,,36,27,{16}1,8,1,8,1,8,1,8,
{8}Cf,,Cf,Cf,{16}Cf,Cf,Cf,,,,,,
1b,2xb,3xb,4xb,7b,6xb,5xb,4xb,2b,3xb,4xb,5xb,8b,,8b,,
8b,7xb,6xb,5xb,8b,1xb,2xb,3xb,5b,6xb,7xb,8xb,1b,2xb,3xb,4xb,
1b,2xb,3xb,4xb,8b,7xb,6xb,5xb,2b,,,2b/4b,,,2b/4b,,
4b,5xb,6xb,7xb,4b,3xb,2xb,1xb,4b,3xb,2xb,1xb,8b,7xb,6xb,5xb,
3b,2xb,1xb,8xb,6b,7xb,8xb,1xb,4b,3xb,2xb,1xb,5b,,5b,,
5b,6xb,7xb,8xb,5b,4xb,3xb,2xb,7b,6xb,5xb,4xb,3b,2xb,1xb,8xb,
2xb-5b[8:1],,,1xb,2xb,,1xb,,7xb-4b[8:1],,8xb-3b[8:1],,7xb,,8xb,,
{8}7b-5-3b[8:2],,3b-1-7b[8:2],,7b,,3b,3b,
{4}1b>4b[8:1]*<6b[8:1],1b,1bw5b[8:1],1b,
8b<5b[8:1]*>3b[8:1],8b,8bw4b[8:1],8b,
{16}2-5[8:1]/1,,,1,2,,,,1-6[8:1]/2,,,2,1,,,,
{4}7<4[8:1]/8>3[8:1],7-3[8:1]/8-4[8:1],78,,
{2}2h[8:2]/1<4[16:3],{16}2,,,35,,,46,,
{2}7h[8:2]/5>8[16:3],{16}7,,7,8,1b/6b,,1b/6b,,
{4}2-5[8:1]/5-1[8:1],25,7-4[8:1]/4-8[8:1],74,
1p5[8:1]/8<6[8:1],81,{24}18,2,3,4,,,8,7,6,5,,,
{8}8h[8:1]/4h[8:5],,8h[8:1],,,8,48,,
{16}35,,,2,1<6[8:1],,38,,12,,,,3,4,3,,
28,,,17,,,86,,86,,,,7-4[8:1],,8,,
7,,,,3,,8,1,8,,,24,,,35,,
46,,46,,,,35,,35,,18,,18,,,,
2-8[8:1],,7,,2-4[8:1],,5,,2-8[8:1],,7,,2,,5,,
7-1[8:1],,2,,7-5[8:1],,4,,7-1[8:1],,2,,7,,4,,
4-2[8:1]/5-7[8:1],,,,45,,,,4-2[8:1]/5-7[8:1],,,,45,,,,
45,,,,6-8-5[8:2],,,,5-2-4[8:2],,,,4,,,,
1,,,7,8>3[8:1],,16,,78,,,,5,,6,,
17,,,28,,,13,,13,,,,47,,6,5,
6,,,,34,,34,,15,,,36,,,4v1b[8:4]/7,,
7,,7,,,,6,,6,,,,7,,8,,
12,,,1,2>5[8:1],,38,,{24}12,8,7,{16}6,,E5,,C,,
E1,,,,7<4[8:1]/8,,78,,{24}78,1,2,{16}3,,E5,,C,,
18,,,27,,,36,,4-1[8:1],,4,,5-8[8:1],,5,,
2,,2,,7,,7,,1,2,3,4,5,6,7,8,
{4}1/5hxb[8:4],,E2f,,E3f/5hxb[8:4],,E4f,E4f,E3f/5hxb[8:4],,E2f,,E1f/5hxb[8:4],,,,
E1f/4hxb[8:2],,E8f/4hxb[8:2],,E7f/4hxb[8:2],,E6f/4hxb[8:2],E5f,E6f/4hxb[8:2],,E7f/4hxb[8:2],,
{8}E8f/4hxb[8:7],,,,,,,,
5hxb[8:4],,,,3,4,3,2,3,3,4,4,2,4,3,18,
,6,5,6,7,6,5,6,3,3,4,4,5,5,6,6,
3b-8b[8:4],,3b,,3b,,3b,,6b-1b[8:4],,6b,,6b,,6b,,
{2}4hxb[8:12]/5hxb[8:12]/4?-7b[35#48:1]/5?-2b[35#48:1],
3hxb[8:8]/4?<7b[52.5#32:1]/5?>2b[52.5#32:1],
6hxb[8:4]/3?p6b[105#16:1]/6?q3b[105#16:1],,
{16}6?-3[4:19]*?-3[4:19]/1hxb[4:2],,8xb,,8xb,,8xb,,2hxb[4:2]/8xb,7xb,6xb,,7xb,,7xb,6xb,
1hxb[4:2]/5xb,,6xb,,6xb,,6xb,5xb,2hxb[8:2]/4xb,,4xb,,1hxb[8:2]/4xb,,5xb,,
2hxb[8:4]/5xb,,6xb,,6xb,,7xb,,{24}1hxb[8:4]/7xb,6xb,5xb,{16}4xb,,4xb,,5xb,,
2hxb[8:8]/6xb,,7xb,,{24}8xb,7xb,6xb,5xb,4xb,,5xb,,5xb,,6xb,,6xb,,7xb,,7xb,,
{16}8hxb[4:2],,1xb,,1xb,,{24}1xb,2xb,3xb,{16}7hxb[8:4]/4xb,,5xb,,4xb,,3xb,,
8hxb[8:3]/2xb,,2xb,,1xb,1xb,{24}7hxb[8:3]/2xb,3xb,4xb,{16}5xb,,5xb,,{12}8hxb[8:2]/4xb,4xb,4xb,
{16}7hxb[8:4]/5xb,,5xb,,4xb,,4xb,,8hxb[8:4]/3xb,,3xb,,2xb,,2xb,,
{24}7hxb[8:1]/1xb,2xb,3xb,4xb,,,7hxb[8:1]/2xb,3xb,4xb,5xb,,,{16}8hxb[8:1]/5xb,,5xb,,8hxb[16:1]/5xb,5xb,{24}8hxb[16:1]/4xb,3xb,2xb,
{16}1hxb[4:2],,,,8xb,,8xb,7xb,2hxb[4:2]/6xb,,6xb,,8xb,8xb,{24}7xb,6xb,5xb,
{16}1hxb[4:2]/4xb,,4xb,,5xb,,5xb,,2hxb[4:1]/6xb,,6xb,,{12}1hxb[4:1]/7xb,7xb,6xb,
{16}2hxb[8:4]/6xb,,,,5xb,,5xb,,{24}1hxb[8:1]/6xb,,6xb,,7xb,,1hxb[8:1]/7xb,,,8xb,7xb,6xb,
{16}5xb/2hxb[8:8],,,,4xb,,4xb,,{12}5xb,5xb,6xb,6xb,7xb,7xb,
{16}8hxb[8:2],,,,{24}1xb,2xb,3xb,8hxb[16:1]/4xb,,,8hxb[8:1]/1xb,2xb,3xb,{16}4xb,2xb,{24}8hxb[8:1]/2xb,3xb,4xb,5xb,,,
{16}7hxb[8:2]/5xb,,,,4xb,,7hxb[16:1]/3xb,,{24}7hxb[8:1]/1xb,2xb,3xb,{16}4xb,5xb,7hxb[8:1]/5xb,,4xb,,
8hxb[8:4]/4xb,,,,{24}2xb,3xb,4xb,5xb,,,7hxb[8:1]/5xb,,,,,,7hxb[8:1]/2xb,3xb,4xb,5xb,,,
{16}8hxb[8:8]/5xb,,,,3xb,,,,2xb,3xb,4xb,,4xb,,,,
{1}Ch[8:6],{16}Cf,,Cf,Cf,Cf,,Cf,Cf,Cf,Cf,Cf,Cf,Cf,,Cf,,
{8}4xb/5xb,,,3xb/4xb/5xb/6xb,3xb/4xb/5xb/6xb,3xb/4xb/5xb/6xb,3xb/4xb/5xb/6xb,,,4xb/5xb,,,4hxb[16:1]/5hxb[16:1],4hxb[16:1]/5hxb[16:1],4hxb[16:1]/5hxb[16:1],,
{16}37,,,,3-7[8:1],,7-1[8:1],,3,,5,,5,,24,,
7,8,7,,56,,3>7[16:3],4,3,,3,,4,,5,,
6b-8[8:1],,8-4[8:1],,6,,3,,3,,2,1,2,,38,,
5,4,5,,37,,26,,7,8,7,,15,,2,4,
3bh[8:1],,,,6-2[8:1],,2-8[8:1],,6,,4,,4,,75,,
2,1,2,,43,,6<2[16:3],5,6,,6,,5,,4,,
3b-1[8:1],3,1-5[8:1],,3,,7,,7,,8,,8,,14,,
1<6[8:1]/4>1[8:1],,,,,,,,5,4,5,,37,,2,8,
1bh[8:1],,,,6,5,6,,1,,1,,3,4,3,,
8,,8,,17,,26,,26,,4,5,3,4,3,,
2-5[8:1],,2,,1-6[8:1],,1,,3-8[8:1],,3,,4-7[8:1],,4,,
1b,,1bw5[8:1],,,,1b,,,,,,37,,37,,
6,,6,,6,5,6,5,6,,6,,65,,65,,
3,4,3,4,3,4,3,4,{24}3,2,1,8,,,4,5,6,7,,,
{16}4b/8,,7b/3,,6b/2,,5b/1,,4/8b,,5/1b,,6/2b,,7v4[140#16:1]/3bv8[140#16:1],,
{8},,Cf/B1/B2/B3/B4/B5/B6/B7/B8/E1/E2/E3/E4/E5/E6/E7/E8/A1/A2/A3/A4/A5/A6/A7/A8/D1/D2/D3/D4/D5/D6/D7/D8,,,,,,,,
3,,4,,5,,6,6,,{16}5,,,4,,,3,,3,,{8},6h[8:25],,,
,,,,,,,,,,Ch[8:11],,,,,,,,,,6?z2z6[8:2],,,,,,
