&title=夢をのぞいたら
&artist=THE IDOLM@STER CINDERELLA GIRLS!!
&first=0.21
&des=XMMCG4
&lv_5=13
&inote_5=(105)
{8},,,,,,,,
{16}2>3q5[8:2],,,,6h[8:1]/2,,,,7<4[8:1],,,,7/3h[8:1],,,,2h[8:1]/5h[8:1],,,,
{24}3,,3,4,,4,5>2[8:1],,5,6,,,6h[8:2],,,,,,
{16}1-5[16:1],,1,,8-6[16:1],,8,,2-4[16:1],,2,,5h[8:1],,,,4>5[141#24:10]/5<4[141#24:10],,,5x/4x,,,,,D5,,,,C,,25,,
{16}3/4>5[8:4],,,,3h[8:2]/4,,,,,,,,4h[8:1],,,,4pp5[8:2]/5,,,,5>1[8:2],,,,1qq8[8:2],,,,8>4[8:2],,,,4<3[8:6],,,,6h[8:6],,,,,,,,,,,,,,,,
{24}6/3,,54,,,54,,,24,,,81,,,,C,,,,,,
{24}3,,3,
{16}4-6[8:1],,2,,
{24}4,,3,,,7/4,,,,65,,,5-3[8:1],,,7,,,5,,,,,5h[24:7]/2h[24:7],,,,,,,,,,,,3,4,,4,3,,3,4-8[8:1],,,3,,3x,4x,,1,,,,1-5[8:1],,,7/3,,,15,,,6h[8:2],,,4-8[8:1],,,,,,5xh[24:6]/4x,,,,,,
{32}B8,B7,B6,B5,B4,B3,B2,B1,
{32}5x,6x,7x,8x,1x,2x,3x,4x,
{16}5x/1bx-5[8:1],,6,,1>4[8:1],,7,,1-5[8:1],,8,,1,,8,,7/4,,
{24}6,,6,5h[24:6],,,,,,6,,,,,,6,,4,8,,,8qq7[8:1]*pp1[8:1]/4,,,,,,A8,,,,,,
{16}7h[8:2],,5,,4h[8:6],,6,,7,,7,,7,,7,,7h[8:1],,,,6-8[8:1]/5,,6,,5-1[8:1],,5,,6-8[8:1],,6,,5-1[8:1],,5,,6,,,,25,,3bx-1b[8:1],,3,,4bx-8b[8:1],,4,,3,,3h[8:1],,7,,
{16}2>3q5[8:2],,5,,2/6,,8,,7<6p4[8:2],,4,,7/3,,1,,2,,5/2,,2-4[8:1],,1-5[8:1],,2,,1,,4h[8:1],,
{24}6,,6,2,,,82,,8v5[8:1]/2v5[8:1],,,73,,,8x/2x,,,,,,,6-8-4[8:2]/4,,,4h[8:1],,,6,,,2,,,3-1-5[8:2],,,5h[8:1]/2,,,
{16}3,,6,,6-8[8:1],,4,,6b/5b,,5b,,3b/4b,,3b/4b,,1b/2b,,1b/2b,,7bx/4bx,,
{24}6bx/5bx,,,6,,6,5,,5xw1b[8:1],6x,,6x,4x,,5x,,,,,,,
{16}8h[8:1]/2h[8:1],,,,
{24}2-5[8:1]/7,,3,4,,,2,,7,,,5,6-1[8:1],,6,4,,,6,,,2,,,
{16}8<6[8:1],,1p5[8:1],,8,,1,,7<4[8:1],,7,,3,,3h[8:1],,4,,
{24}25,,3,4-8-6[16:3],,4,3,,3,4,,,3,,,1x>4[8:1]/5x<8[8:1],,,26,,,1p5[8:1]/5p1[8:1],,,,,,1/5,,,,,,
{32}1bx/5bx,2x/6x,3x/7x,4x/8x,5bx/1bx,,,,
{24}8hx[8:1]/4hx[8:1],,,,,,3-8[8:1]/6,,4,5,,5,3,,,6,,8,7-4[8:1],,6,1,,1,7,,,2,,,
{16}2-5[8:1]/5,,1,,2/7-4[8:1],,8,,7/3-8[8:1],,2,,3/6,,6,,
{24}5<7-4[8:2],,5,4,,4,5,,,3,,,2v5[8:1],,,34,,,2/5,,,6h[8:1],,,
{32}3bx,4x,5x,6x,7x,8x,1x,2x,3x/6bx,5x,4x,3x,2x,1x,8x,7x,6xh[8:2]/3b,,,,,,,,
{24}2>5[8:1],,6,,,5,2,,,8,,,7<6p4[8:2],,3,,,4,7,,,3,,,1h[8:2],,,,,,
{24}6,,6,5,,5,4<7[8:1],,4,3,,,3hx[8:2],,,,,,
{16}8-4[8:1],,7,,3-1[8:1],,2,,7-5[8:1],,6,,1h[8:1],,,,
{16}6<4[8:3],,,,
{16}5h[8:3]/6x,,,,,,,,6x,,,,54,,5h[8:1]/4h[8:1],,,,24,,81,,75,,54,,
{24}3x,4x,1x,8xh[8:1],,,2,,,4>1[8:1],,6,5,,5,4,,5,,,,8-4[8:1],,7,1,,1,8,,,,,,
{24}5/3>8[8:1],,,4,,,3/6>3[8:1],,,5,,,6/2-6[8:1],,,1,,,2/8h[8:1],,,,,,
{24}7,,6,5,,5,4,,4,3,,1,4-8[8:1],,,5,,,3p5b[8:2]/4,,,3,,,5q3b[8:2],,,,,,3b,,,,,,8>3[8:1]*<5[8:1],,,4,,,8,,,,,,
{24}7-4[8:1]/4,,6,5,,5,7,,3,,,,3-6[8:1]/6,,5,4,,6,3,,,,,,
{24}8-5[8:1],,,7,,,8/4-1[8:1],,,3,,,4/6-3[8:1],,,5,,,6/2h[8:1],,,,,,2,,3,4,,4,5,,5h[8:1],,,,
{24}6>3[8:2],,,,,,3>6[8:2],,,,,,6<3[8:2],,,,,,3-1<8-6[8:2],,,,,,4h[8:1],,,,,,
{24}4-2[8:1],,,5,,,4,,,7,,,6>3[8:1],,,3p5[8:1],,,6,,,1,,,2h[24:3],,,,,4,2,,2,5,,3,4-8<5[8:2],,,3,,2,4,,,,,,
{24}4>1[8:1],,,5,,,6-3[8:1],,,7,,,8<5[8:1],,,1,,,2-7[8:1],,,,,,6<3[8:3],,,,,,6hx[8:2],,,,,,,,,5,,,54,,,E7/E3,,,2qq5b[8:2],,3,4,,4,2,,,,,,7qq1b[8:2],,,5,,,7/8,,,2,,,3h[8:1],,,,,,3>8[8:1],,5,4,,,3/7qq8[8:2],,,6,,,7/2,,,,,,4-2[8:1],,,4,,,5-1[8:1],,,5,,,2,,,3,,,8bz4b[8:1]/4b,,,,,,2-6-8>1>2-4[8:8]b,,,,,,,,,,
