&title=ヒュブリスの頂に聳えるのは
&artist=qfeileadh/のあ
&first=0
&des=KyuuBAi
&clock_count=4
&lv_5=14
&inote_5=(158)
{1},
{4},
{16}5,4,35,,5,46,,2,13,,7,68,,,
{24}2,1,3,8,4,7,5,6,5,
{16}6,,,1bx/3bx,,,2bx/8bx,,,1bx/7bx,,,
{24}6,5,6,5,6x/4x,,
{16},53,,,24,,
{24}3x,3x,3x,
{16}3x,,7-3[16:1],68,,,7bpp2<6[8:5]/3pp6>2[8:5],,
{4},,,
{16},,
{24}3h/7h,4h/8h,1h/5h,
{4}2bh/6bh[1:2],,
{8},
{6}1,3,
{24},B8,,,,C,,,,,B4,,,,,,
{24}4,,,,4h[12:13],,,,,
{12},,
{24}B6,,,,,
{4}Ch[4:1],,,
{8},
{4}6h[4:1],8h[4:1],3h[4:1],
{8},C,
{16}5,4,C,,
{8}6h[8:1]/5,C,4/3h[8:1],C,6h[8:1]/5,7,4/3h[8:1],2,
{16}6,5,6,7,6,,
{4}Ch[8:3],,1h[2:1],
{8}E7,B5,
{4}4h[4:1],6h[4:1],8h[8:3],
{8},
{16},1bx/8bx,,,2b/6b,,78,78,,3b/7b,,12,12,,1b/5b,,3b-1[16:1]/7b-5[16:1],37,,,
{4},6h[4:3],
{8}
{24}7,,,,E1,,,,,2,,,
{6},
{24},5h[6:1],,,,4h[8:3],,,
{4},
{8},7,56,4h[8:3],3h[4:1],,,
{12},C,,7h[16:1]/8h[16:1],
{24},7b/8b,,,
{16}3,4bx/3bx,,6,
{4}5bx/6bx,
{16}3h[7:1]/5h[7:1],,,1h[7:1]/7h[7:1],,,
{4}2b/6bqq2[1:1],,
{8},
{24}8,,,,1,,,,,2<1<8<7<6[4:1],,,,3,,,,,
{4}4,
{24}5h[24:9],,,,6h[24:5],,,,,
{8},
{16},4,3,,
{4}3h[4:1]/5h[8:3],
{8},,2h[4:1]/6h[4:1],
{4},1h[4:1]/7h[16:5],
{16},,,2,6,3,5,,
{8}4-8[8:1],5,
{16}4-7[8:1],2,2,,1-5[8:1]/4,,,8,1-4[8:1],,6,,1/7-2[8:1],,8,,3-6[8:1]/7,,4,,37,,7-3[8:1],8,,8,7,,1-5[8:1],
{16},,,1/6-3[8:1],,,,
{12}6/2h[6:1],,1h[6:1],,8h[8:1],,
{64}8bx/5b,4x,
{32}3x,,,,,{64}1b/6b,5x,
{32}4x,,,,,{64}2b/7b,6x,
{32}5x,,,
{8},
{12}35,,
{24}4V28[8:1]*V68[8:1],,,,,
{4},
{64}E1/E8,B1/B7,E2/E7,B2/B6`Cf,E3/E6,B3/B5,E4/E5,,
{8},
{24},,,4h[6:1],,,,3h[24:5],,,,,2h[6:1],,,,6h[24:5],,,,,7<3[8:1],,,
{4},
{8}1,2,C,6h/5h,6h/5h,,3h[12:5],
{16},4h[6:1],
{4},
{12}7h[4:1],E6,B1,2h[4:1],B3,B7,8h[4:1],B1,E6,4h[4:1],6,8,
{4}Cf,,
{8}7>4[8:3],6,5,4<1[8:3],5<1b[8:2],,,,,C,
{16},,7,6,5h[8:13],,,4,,,3,,,,C,,,,1h[4:3],,
{4},,,
{8}2z6[4:2]/6,3-7[8:3]/7,
{2},
{8},8,5,1q4[8:3],1p6[4:1],,
{4},,
{8},
{16}5,4-8[16:1],
{8}3b/6b,,,1b-5[16:1]/7b,,,6b,,
{16}4,6,4,6,3,6,3,6,2,6,2,6,2q8[2:1],6q4b[16:7],2,6,
{4},,
{8},
{16}73,26,
{4}1b/5b,
{16}37,37,37,37,,1/5,15,15,
{4}1bx/5bx,,
{16}1-5[8:1],,,8,1,,8,,5v2[8:1],6,4,6,5-1[8:1],,8,8-4[8:1],5,,,8,,,5,,
,,45,,3-7[8:1]/4,,2,2-6[8:1],3,,,2,,,
{4}5pp2[4:3],
{16}3,,4,,5-1[4:1],,
{4},,
{8},
{16}8,1,7-4[8:1],1,8,,
{8}7/2-6[8:1],1,8-4[8:1]/2,1,8/2-4[8:1],1,2/6-8[8:1],5,6/3-1[8:1],4,7>3[4:1]/3,6,
{16}73,4,5,6,
{8}7-3[8:1],,
{16}7,,5xw1[16:1],5x,,,
{8}5,,
{16}7,3,6,4,5bh[8:5],,
{4},,,2-6[8:1]/1-5[8:1],
{16}2bx/1bx,,,7-3[8:1],3,,,,
{8},24,15,86,
{16}7b,,,3-6[8:1],7,,,,
{8},
{16}7x,8x,
{4}1bx/6b,
{6}3bh[12:1]/4bh[12:1],1bh[12:1]/7bh[12:1],4bh[12:1]/6bh[12:1],1bh[12:1]/5bh[12:1],7bh[12:1]/8bh[12:1],2bh[12:1]/6bh[12:1],
{4}3b>1[8:1]/5b,3/5<7[8:1],5/3-8[8:1],3/5-8[8:1],3p8<4[8:9]/5q8>4[8:9],
{1},
{4},
{8},,4h[8:1],,
{24}3h[8:1]/5h[8:1],,,,1h[8:1]/7h[8:1],,,,,26,,,
{8},1V35v3[4:3]/5V71v7[4:3],37,15,
{1},
{16}36,5,4,5,3,5,4,6,4,6,3,5x,3,4,3,5,3x,6,4x,6,5,6,4,5,3,5,3,6x,2,7,1,8,2,7,3x,6,3,6,2,5x,3,5x,4,6,3,5,2x,1,3,8,4,7,8,7,1,6,2,5,2x,1,3,8x,4,7,5x,6,3,4x,2,5,3x,2,1,7x,6,5,4x/3x,2,1,7x/8x,6,5,7x/4x,6,5,4x/6x,5,4,3x/5x,4,3,2x/5x,4,3,
{4}2xh[8:3]/6xh[8:3],,
{8},
{24}37,
{6},26,
{4}1h[4:3]/5h[4:3],,,
{32},26,37,48,
{4}1b/5b,
{12}12,38,47,78,16,2<2-6[2:7]/5>1z5b[2:7],
{1},,,,
{8},6,5,4,
{4}3,3,53,36,46,35,36,37,2-6[45.5#0.05]/6-2[45.5#0.05],,,
{8},
{128},Cf,,,
{32},,,
{4},,,45,
{16}34,,7-2[16:1]*-4[16:1],8,,,
{64}7b,,Cf,,
{16},,,32,,34,,54,,56,,2w6[16:1],1,,,
{64}2b,,Cf,,
{16},
{8},
{64}A6,D7/D6,A5`A7,D5/D8,A4`A8,D1/D4,A1`A3,D2/D3,
{4}A2,
{6}2bh[12:1]/8bh[12:1],4bh[12:1]/6bh[12:1],7bh[12:1]/8bh[12:1],4bh[12:1]/3bh[12:1],4bh[12:1]/7bh[12:1],1bh[12:1]/2bh[12:1],
{4}5b-3[8:1]/6b-3[8:1],5-8[8:1]/6-8[8:1],5-1[8:1]/6-2[8:1],6q1>5[4:5]/5p2<6[4:5],56,
{1},
{4},,5-1[16:1]/6-2[16:1],
{24}56,,,,3x/8x,,,,,4x/7x,,,
{16}5,6,4,7,3,8,
{4}2h[2:1],
{8},6,7h[4:1],,2w6b[16:1],,2b,
{4},
{16}3x,4h,1,8h,5x,6h,1,8h,
{16}3x,4h,1,8h,5x,6h,2,1h,
{16}3x,4h,8,7h,5x,6h,2,1h,
{16}3x,4h,8,7h,4x,5h,2,1h,
{16}4x,5h,8,7h,4x,5h,2,1h,
{16}4x,5h,8,7h,3x,4h,2,5h,
{16}3x,4h,2,5h,4x,5h,3,6h,
{16}4x,5h,3,6h,5x,6h,5,6h,
{16}4x,7h,4,7h,3x,8h,3,8h,
{16}2x,1h,2,1h,3x,4h,3,4h,
{16}2x,5h,2,5h,1x,6h,1,6h,
{16}8x,7h,8,7h,2x,4h,3,7h,
{16}5x,1h,3,8h,2x,6h,2,6h,4x,8h,4,8h,
{16}3x,5h,1,7h,4x,6h,2,8h,
{16}3x,1h,5,7h,1,5h,3,7h,
{4}1-4[8:1],1-7[8:1]/6-2[8:1],1/6V41[8:1],6/8b-5[8:1],
{4}8/2-7[8:1]*-5[8:1],2,6w2[8:1],6b,8-4[8:1],8-6[8:1]/2-6[8:1],2-4[8:1]/8-4[8:1],2b/8b,
{32},
{16}5h[8:1],,,4h[8:1],,,2h[4:1],,
{8},,2,5,4h[8:3],,,8,7h[8:3],,,1,2,
{16}8,1,,,1h[8:5],,
{32}8x,7x,6x,5x,4x,3x,2x,,8x,7x,6x,5x,4x,3x,2x,8bx,
{4},,
{16},,,56,
{4},
{8}18,34,
{4},
{16},,,
{32}5x,6x,5x,6x,5x,6x,5x,6x,5x,6x,
{16}5x,,12,1h[16:1]/2h[16:1],,43,4h[16:1]/3h[16:1],,78,7h[16:1]/8h[16:1],,45,5h[16:1]/4h[16:1],,2/6,6h[16:1]/2h[16:1],,8/4,4h[16:1]/8h[16:1],,26,,,
{8}34,78,26,34,
{24}4x,3x,4x,3x,4x,,26,,,84,,,
{16}86,86,,
{24}5x,6x,5x,
{16}6x,,43,43,,,2qq7>8>1>2>3[8:5]/6qq3<4<5<6<7[8:5],,
{4},,,
{24},,2x/6x,1x/5x,4x/8x,3x/7x,2bhx[1:3]/6bhx[16:47],
E
