&title=嫦娥奔月 -Lunar Paradoxx-
&artist=Kaori Aizawa
&first=0
&des=Kmmr -Escape to Lunar-
&lv_5=14+
&lv_6=15
&inote_5=(150)
{4},,,,,,,,
{64}18,27,3/6h[64:22],4,5,,,,,,,,,,,,
{4},B8/B7/E8/3h[8:3],,B2/B3/E3/7h[8:3],,B1/B2/E2/5h[8:3],,B5/B6/E6/2h[8:3],,B3/B4/E4/6h[8:3],,B6/B7/E7/3h[8:3],,E1/B1/B8/5h[8:3],,
{8}17,2,6,3,45,8,2,6,24,7,1,5,47,2,8,6,
{16}27,,6,5,6,,3,8,1,8,1,8,1,,7,,2,2,4,4,5,5,7-3[8:2],7,7h[8:3],,,,,,,,
{16}2b,,3,4,3,,6,,8,1,,,2,,5,,7,,1,,6-3[8:1],,,,6,,,,1,1,7,,4h[8:3],,,,,,6,,2,,5,,8,,6,,3,,1,,4,,7,,5,,6,4,5,3,4,2,3h[8:3],,,,8,,,,
26,,3,,8,4,8,,7<4[8:1],,5,,7>2[8:1],,1,,7/3h[8:1],,,,4,,8,,7h[8:3],,2h[16:3],,,,1h[8:2],,,,3h[4:1],,,,8h[4:1],,,,4h[8:3],,7,,8,,1w5[8:1],,
{32}5x,6x,7x,8x,
{16}1,,,,
{24}8,7,6,51,2,3,47,6,5,48,1,2,38,7,6,5,2,3,4,1,2,3,7,6,5,2,3,4,1,2,8,7,2,3,7,6,
{32}4,5,4,5,4,5,4,5,4,,,,,,,,
{16}16,,2,,7-4[8:1],,3,,7,,2,,8,,1,,7,,2,,6-1[8:1],,4,,6h[16:1],,3,,5,,1,,63,,7,,2-5[8:1],,8,,2,,6,,3,,1,,4,,7,,1-4[8:1],,5,,1,8,7,,3,,5,,
38,,2,1,2,,7-4[8:1],8,7,8,7,,2,3,2,3,2,,6-8[8:1],5,6,5,6,,3,1,3,1,3,,46,,
7-4[8:1]/8,,7,8,7,,2,3,2,3,2,,8-5[8:1],1,8,1,8,,3,4,3,4,3,,1,7,1,,28,,57,,
25,,,3,34,,8,,57,,2,,34,,1,,47,,,6,56,,2,,7,8,7,,16,,35,,26,,,3,34,,1,8,7h[16:3],,,
5h[16:3],,,4h[16:2],,,,2,8,3,7,4,6,3,5,2,6,1,7,5,6,54,,2,1,2,,7,,1h[8:1],,6h[4:1],,8,,3h[8:1],,5h[8:1],,1,,6,,2,,7,,3,4,2,5,1,6,8h[4:1],,7,,6h[4:1],,5,,4h[4:1],,3,,
2,,1,,
{8}8h[16:2],6,
{12}1h[12:2],3,3,
{16}7h[16:3],5,5,5,
{24}2h[24:5],4,4,4,4,4,
{16}6/4x,,2,1,2>5[8:1],,7,,2,,7,8,7h[8:1],,,,61,,3,4,3<6[8:1],,7,,3,,8,1,8h[8:1],,,,
25,,,,
{32}4,5,4,5,4,5,4,5,4,,,,2,3,2,3,2,,,,7,6,7,6,
{12}7h[4:1],5,5,2h[4:1],4,4,
{16}8v5[8:1],,1,,8,,,,17,,2,8,2v5[8:1],,6,,2,,6,,4h[8:1],,,,16,,3,5,
{12}1,6,4,
{16}8,,2,,7,,
{32}3,5,3,6,5h[8:1],,,,,,,,
2,,8,,6,,1,,3h[8:1],,,,,,,,
3,6,4,5,3,6,4,5,3,,,,4,,5,,4,,,,5,4,5,4,5,,,,
{48}4,5,4,5,4,5,4h[4:1],,,,,,,,,,,,
{16}Cf,,,,,,,,E8/B7/B8,,,,,,,,B1/B2/E2,,,,,,,,
{24}C,,,,1,7,5,,2,,4,,8/C,,,,,,
{16},,,,1/7,,2,1,38,,7,8,16,,6,5,4h[8:1]/7h[8:1],,,,28,,3,4,25,,7,8,1/6>3[8:1],,2,,6,,,,
{12}7/E4/B3,6,5,4/E8/B8,3,2,7/E4/B3,6,5,4/E8/B8,3,2,
{16}47,,6,5,6>3[8:1],,2,,6<1[8:1],,1,,6,,,,
E8/B8/B7/3h[32:5],,,E2/B1/B2/5h[96:14],,,E4/B3/B4/7h[96:13],,,1h[96:12]/E6/B5/B6,,,E3/B2/B3/6h[96:11],,,4h[96:10]/E8/B7/B8,,,E3/B2/B3/7h[96:9],,,1h[96:8]/E5/B4/B5,,,6h[96:7]/E3/B2/B3,,,4h[96:6]/E8/B7/B8,,,5h[96:5]/E2/B1/B2,,
3,6,4,5,3,6,4,5,
{24}3,6,4,5,3,6,5,4,3,4,5,63,
{32}4,5,4,5,4,5,4,5,4,5,4,5,4,5,4,5,4,,,,,,,,,,,,,,8x/4x,3x/7x,
{16}6x<2[4:1]/2x-5[8:1],,,,2x>6[16:3],,,,6x-1[8:1],,,,2bqq4[8:3],,,,,,,,,,,,
2x/8x,,7,1,7,2,7,3,7<4[4:1]/4-1[8:1],,,,4x>8[16:3],,,,7x-4[8:1],,,,3bqq6[8:3],,,,,,,,,,,,
3x/7x,,,26,,,15,,4>8[4:1]/8-3[8:1],,,,8x<5[16:3],,,,5x-1[8:1],,,,4bqq1[8:3],,,,,,,,,,,,
2x/6x,,38,,6,2,5,1,4h[16:6]/8h[8:3],,,,,,,,15,26,37,48,15,26,3/7h[8:3],,,,,,2h[4:1],,,,3h[8:1],,1b,,,,
{32},,4x/8x,3x/7x,
{16}6x>2[4:1]/2xv5[8:1],,,,2x<6[16:3],,,,5x-8[8:1],,,,1b/5xpp8[8:3],,,,,,,,,,,,B2/B1/E2,,,B7/B8/E8,,,B5/B4/E5,,
6V82[4:1]/2v7[8:1],,,,2x-5[16:3],,,,6x-1[8:1],,,,2b/6xV84[8:3],,,,,,,,,,,,
3x/6x,,,47,,,58,,
1V36[4:1]/6-2[8:1],,,,6xV83[16:3],,,,4x-1[8:1],,,,2b/4xV62[8:3],,,,,,,,,,,,
7x,6x,5x,4x,3x/7xV53[4:1],2x,1x,8x,7x/3xV17[4:1],,,,7V51[2:1],,,,3b,,,,,
{32}4x,3x,
{16}2xh[8:5],,,,,
{32}8x,7x,
{16}6xh[4:1],,,,,,4h[4:1]/8h[8:13],,,,,,1h[4:5],,,,,,,,,,,,,,,,,,,,,,,,
4h[8:1]/7h[8:1],,,,,,36,,2-4[8:1],1,2,1,2,,6-8[8:1],5,6,5,6,,2-5[8:1],1,2,1,2,,8,,
4,,,,7h[4:1]/2h[4:1],,,,,,
36,,7-5[8:1],8,7,8,7,,3-1[8:1],4,3,4,3,,7-4[8:1],8,7,8,7,,1,,5,,,,2h[4:1]/7h[4:1],,,,,,
47,,1-3[8:1],8,1,8,1,,5-7[8:1],4,5,4,5,,1-4[8:1],8,1,8,1,,7,,3h[4:1],,,,
Ch[1:1],,E2,,E3,,E4,,
{12}E5,E6,E7,E8,B8,B1,
{24}B2,B3,B4,B5,B6,B7,B8,B1,B2,B3,B4,B5,
{32}B6,B7,E8,E1,E2,E3,E4,E5,E6,E7,E8,E1,E2,E3,E4,E5,Ch[8:3],,,,,,,,
{16},,,,1,7,2,4,3,8,5,1,4-1[8:1],,3,,4-7[8:1],,5,,4,,3,,2h[8:1]/6h[8:1],,,,4h[4:1]/8h[4:1],,,,,,,,
1,7,2,1,4,,7,1,4,3,6,,2,8,5,6,3,,7,,5h[2:1],,,,1h[4:1],,,,,,37,,2,1,2,,1,,6,3,5,8,7,,
3,8,1,6,5,,7,,2h[8:1],,,,
{24}8,7,6,1,2,3,7,6,5,2,3,4,7,6,5,8,7,6,2,3,4,1,2,3,84,7,6,5,4,3,27,1,8,7,6,5,4b/1b,3,2,1b,8,7,6b/3b,,,,,,
{16}1>4[8:1]/8,,6,6,1-6[8:1],,7,7,1-4[8:1],,8,8,1<6[8:1],,5,5,1-4[8:1],,8,8,1-6[8:1],,7,7,1>4[8:1],,5,5,1<6[8:1],,6,6,1V37[4:1],,,,7-5[8:1],,5-1[8:1],,1-3[8:1],,3-7[8:1],,7<3[2:1]*v4[8:1],,,,Cf,,,,,,,,E1/B1/B8,,E7/B7/B6,,E3/B2/B3,,,,
8<5[8:1]/1,,3,3,8-3[8:1],,2,2,8-5[8:1],,1,1,8>3[8:1],,4,4,8-5[8:1],,1,1,8-3[8:1],,2,2,8<5[8:1],,4,4,8-3[8:1],,2,,8-5[8:1],,7,,8pp4[2:1],,1,,C,,,,7-5[8:1],,8,,7-1[8:1],,2,,7qq4[4:3],,4,,7,,,,5,,4,,3,2,1,,8h[8:1],,,,,,
2,8,2-6[8:1],,1,,8-4[8:1]/2,,7,,8/6xpp3[2:1],,5,,6/4x,,,,,,2,,1-5[8:1],,8,,7-3[8:1]/1,,8,,1-5[8:1]/7,,2,,3xqq7[2:1]/1,,2,,3/5x,,,,7qq2[2:1],,,,1x,,8x,,7x,,,,
8<5[8:1],,4,4,8-3[8:1],,2,2,8-5[8:1],,1,1,8>3[8:1],,4,4,8<5[8:1],,1,1,8-3[8:1],,4,4,8-5[8:1],,2,2,8,,3,3,3-1[8:1]/4,,2,,3/7-5[8:1],,6,,1-5[8:1]/7,,8,,71,,8,,
6,4,6,3,6,2,6,1,6h[8:1],,8h[8:1],,1h[8:1],,3h[8:1],,
7h[1:2],,B2,,B1,,B8,,B6/B7/E7,,,B4/B5/E5,,,B2/B3/E3,,,,
E4,,B3,,B2,,B1,,B8,,1x,2x,3x,4x,5xh[1:1],,E6,,E7,,B8,,B1/B2/E2,,,B3/B4/E4,,,B7/B6,,,,
8,2,7,5,2,4,6,1,4,2,6,5,8,3,5,,
1,2,3/4h[8:1],,8h[8:1],,6h[16:3],,,5h[16:3],,,2h[8:1],,6h[4:1],,1,8,7h[4:1],,8,,5h[4:1],,6,,7,8,1,2,
3,5,1,4,2,7,8,6,
{32}8,1,2,,5,,5,,3,4,5,,8,,8,,
8,7,6,5,4,3,2,1,83,4,5,6,7,8,1,2,36,5,4,3,2,1,8,7,62,3,4,5,6,7,8,1,2/7b,
E
&inote_6=(150)
{4},,,,,,,,
{64}18,27,3/6h[64:22],4,5,,,,,,,,,,,,
{8},,3,,6h[8:1],,3,,C,,3,,,,36,6,,6h[8:2],3,,C,,3,3,6,6,4,4,5,5,
{16}3>1[16:3],,6,5,6,,3,,7<4[8:1],8,6,8,7,,3,,
5<8[16:3],,3,4,3,,5,,2>5[8:1],1,3,1,2,,6,,
7,4,6,5,7,4,6,5,8,4,6,6,8,4,6,6,
8,8,5,5,7,7,3w7[4:1],3,3,,,,,,,,
1b/5b,,2,4,3>8[16:3],,,,7,,7,,6,,5,,4-7[16:2],,1,,2-6[8:1],,,,8,,,,7>2[8:1],,6,,5,,,,
6<3[4:1],,8,,7,,5,,7,,4,,8h[8:1],,1h[8:1],,5h[8:1],,7h[8:1],,4h[8:1],,7,5,8,6,
{24}1,7,2,
{16}8h[4:1],,,,B3/B4/E4,,,,
6,5,6,,3,4,3,,6,5,6,5,3,4,3,4,45,,,,3,,6,,1q5[8:1],,2,,3,,4q8[8:1],,5,,6,,7<4[8:1],,8,,1,,2,,3>8[8:1],,4,,5,,6,7,8x,,,,
{24}1,5,1,5,1,5,8,4,8,4,8,4,1,2,3,4,5,6,8,1,2,3,4,5,7,8,1,2,3,4,6,7,8,1,2,3,
{32}4,5,4,5,4,5,4,5,
{16}4,,,,26,,35,4,5<8[8:1],,4,,3,,
{24}2,1,2,
{16}1-5[8:1],,2,,3>8[8:1],,4,,5,,6,,7>5[16:4],,6,,5,,6,,7,,
{24}74,6,5,
{16}4>1[8:1],,5,,6,,7,,8-6<7-4[4:1],,1,8,1,,2,,3,,2,,3/5-1[8:1],46,57,,8,,8b,,2b/7b,,
6,5,6,,3,4,2,4,3,,7,5,7,6,7,,1,4,1,2,1,,8,5,7,5,8,,1,,36,,
2,1,2,,7<4[8:1],8,7,8,7,,2-5[8:1],3,2,3,2,,7-3[8:1],6,8,6,7,,4-8[8:1],2,4,1,4,,7,,
18,,27,36,4/5h[4:1],,8,1,2h[4:1],,4,,7h[4:1],,5,,3h[4:1],,1,8,7,,7,5,6-2[8:1],5,7-4[8:1],,6,,7,,1h[4:1],,3,4,5,,4,5,6,,57,48,,35,2h[8:1]/6h[8:1],,,,
1,5,2,6,8,7,1,5,2,7,
{24}4,5,3,6,2,7,
{16}45,,7,5-1[16:2],7,,3,5,3h[16:3],,,8h[16:3],,,1,,3,,6,5,7,4,8,,3,4,2,5,
{24}1,6,8,7,6,8,
{16}5,,,3,3/4h[16:2],,6,,5h[4:1],,7,,8h[8:1],,1,,
{8}7h[16:2],5,
{12}2h[12:2],4,4,
{16}6h[16:3],5,5,5,
{24}3h[24:5],4,4,4,4,4,
{16}4b/5b,,2,1,2,,7,8,
{32}7v4[8:1]*q3[8:1],6,5,,
{16}18,,7,,,,15,,78,16,25,,12,38,
{32}4w8[8:1]/7,,,,
{32}8,17,26,35,
{16}4,,,,2b/6b,,,,
{24}6,5,6,3,4,3,45,,,7,8,1,
{32}2h[4:1]/7,8,1,,3,4,5,6,
{12}7,85,7,6,25,4,
{16}3,,27,,1,,,,8b/1b,,,,4,,
{24}6,5,6,
{16}5<8[8:1],,4,,3,,,,
18,,27,36,
{12}45,36,27,
{16}18,,36,,1/8h[4:1],,
{24}7,6,5,4h[4:1],,,,,,
{16}3,2,1,8,7h[4:1],,,,
{32}2,1,8,7,6,5,4,3,2h[4:1],,,,1,,3,,5h[4:1],,,,
6,7,8,1,2h[8:1],,,,
{48}6,7,8,1,2,3,
{16}4b/5b,,,,Cf,,,,,,,,C,,,,,,,,C,,,,,,,,
{24}C,,,,7,8,6,,15,,24,,
{48}3w7[8:1]/B4,C,B8,A8,,,,,,,,,
{16},,,,
{48}1b/2b,3,4,,,,
{16}7,8,16,,2,1,38,,
{24}5,4,5,3h[8:1]/6h[8:1],,,,,,
{48}7b/8b,6,5,,,,
{16}2,1,
{48}38,,,,,,
{16}7,8,
{48}1b/6b,5,4,
{16}3,4,3,4,,,,
{12}7b/E4/B3,6,5,4b/E8/B8,3,2,7b/E4/B3,6,5,4b/E8/B8,3,2,
6b/1-7[8:1],5,4,3b/1-3[8:1],4,5,6b/1-7[8:1],5,4,1/3b,4,5,
{16}B1/6h[32:5],,,E8/4h[96:14],,,E6/2h[96:13],,,8h[96:12]/B3,,,B7/3h[96:11],,,5h[96:10]/B2,,,E7/2h[96:9],,,8h[96:8]/B4,,,3h[96:7]/B7,,,5h[96:6]/E2,,,4h[96:5]/E8,,
3,6,8,7,4,5,2,1,3,6,8,7,4,5,2,1,
{32}2,3,4,7,6,5,3,4,5,6,5,4,3,4,5,6,
{16}2b/7b,,,,,,,,
{48}1b/8b,2-7[8:1]/7,3/6V82[48:10],45,,,,,,,,,
{16}2V46[4:1]/6,,,,6x,,
{32}7x>4[32:5],8x>5[32:5],1x>6[32:5],2x>7[32:5],3xh[8:3],,,,,,,,,,,,,8,1,2,
{24}3,4,5,
{16}62,73,84,,2,1,4,7,1,6,
{48}8b/1b,7-2[8:1]/2,6/3V17[48:10],54,,,,,,,,,
{16}7V53[4:1]/3,,,,3x,,
{32}2x<5[32:5],1x<4[32:5],8x<3[32:5],7x<2[32:5],6xh[8:3],,,,,,,,,,,,,1,8,7,
{24}6,5,4,
{16}37,26,15,,,3/B8,,,6/E3,,
{48}1b,2-6[8:1]/8,37,4/6V42[48:9],5,,,,,,,,2V86[4:1]/6,,,,,,,,,,,,
{32}5x,,,,4x>7[32:5],3x>6[32:5],2x<5[32:5],1x<4[32:5],8xh[8:3],,,,,,,,,,,,,3,2,1,
{24}8,73,62,
{16}51,4,3,,2,,6,1,7,2,
{48}8b,7V13[16:3]/1,62,53,4h[48:32],,,,,,,,7,,,,,,,,,,,,
{16}5,6,7,8,1,2,3h[8:2]/4h[8:2],,,,,,6h[8:2]/5,,,,2h[8:1],,
{48}8b,,,,,,,,,,,,,,,,,,
{48}2b/1b,3-8[8:1]/8,4/7V13[48:10],56,,,,,,,,,
{16}3V57[4:1]/7,,,,7x,,
{32}8x>5[32:5],1x>6[32:5],2x>7[32:5],3x<8[32:5],4xh[8:3],,,,,,,,,,,,,1,2,3,
{24}4,5,6,
{16}73,84,15,,3,1,2,6,8,5,
{48}8b/7b,1-6[8:1]/6,2/5V71[48:10],34,,,,,,,,,
{16}1V35[4:1]/5,,,,5x,,
{32}6x<3[32:5],7x>4[32:5],8x>5[32:5],1x>6[32:5],2xh[8:3],,,,,,,,,,,,,7,8,1,
{24}2,3,4,
{16}51,62,73,,,6/B2,,,3/E8,,
{48}1b,2-6[8:1]/8,37,4/6V42[48:9],5,,,,,,,,2V86[4:1]/6,,,,,,,,,,,,
{32}5x,,,,4x>7[32:5],3x>6[32:5],2x<5[32:5],1x<4[32:5],8xh[8:3],,,,,,,,,,,,,3,2,1,
{24}8,73,62,
{16}51,4,3,2,6,2,5V71[4:1],2,4,2,1bV35[4:1]/5b,,,,5V73[4:1],,,,3,,2,,1,,
{32}8x,1x,2xh[16:5],,,,,,,,,,4x,5x,6xh[16:3],,,,,,3b,,,,1h[8:13],,,,,,,,,,,,8h[8:10],
{4},,,,,
{32},,,,,,,
{16}6h[8:1],,1h[8:2],,,,7,,
{48}7b/2b,3,4,
{16}6,5,6,5,,
{48}6b/1b,2,3,
{16}5,4,5,4,,
{48}5b/8b,1,2,
{16}4,3,4,3,,56,,1-5[8:1]/8-4[8:1],,,,18,,,,3,,6,,
{48}2b/7b,6,5,
{16}3,4,3,4,,
{48}3b/8b,7,6,
{16}4,5,4,5,,
{48}4b/1b,8,7,
{16}5,6,5,6,,18,,2-5[8:1]/7-4[8:1],,,,27,,,,1,,6,,
{48}7b/2b,3,4,
{16}6,5,6,5,,
{48}6b/1b,2,3,
{16}5,4,5,4,,
{48}5b/8b,1,2,
{16}4,3,4,3,,27,,45,,,,1bs5<4[2:3]/7s3>4[2:3]b,,,,,,,,,,,,,,,,,,,,,,,,,,,,,,,,
1h[8:1]/5h[8:1],,,,,,2,,
{48}2b/7b,3,4,
{16}6,5,7,5,6,5,8,5-1[8:1],,4,,7-4[8:1],,8,,2-6[8:1],,3,,5-1[8:1],,4,,58,,,,,,2,,
{48}2b/7b,6,5,
{16}3,4,3,4,,
{48}3b/8b,7,6,
{16}4,5,4,5,,
{48}4b/1b,8,7,
{16}5,6,5,6,,18,,3-6[8:1]/7-2[8:1],,,,37,,,,4,,8,,
{48}2b/7b,3,4,
{16}6,5,8,1,4,3,8,1,7,5,6,4,8,2,7,3,,5,,81,,,,
{24}1,8,7,6,5,4,8,1,2,3,4,5,2,1,8,7,6,5,7,8,1,2,3,4,
{32}1,2,3,4,7,6,5,4,2,3,4,5,8,7,6,5,
2,3,4,5,6b,7,8,1,2b/6b,,,,,,,,
{16}1>4[8:1]/8,,6,6,1-6[8:1],,7,7,1-4[8:1],,8,8,1<6[8:1],,5,5,1-4[8:1],,8,8,1-6[8:1],,7,7,1>4[8:1],,5,5,1<6[8:1],,6,6,1,,5,5,7,5,8,6,1,7,2,8,3,1,4,2,5b,,3,4,25,,6,3,4b/5b,,4b/5b,,4b/5b,,7,,
{16}8<5[8:1]/1,,3,3,8-3[8:1],,2,2,8-5[8:1],,1,1,8>3[8:1],,4,4,8-5[8:1],,1,1,8-3[8:1],,2,2,8<5[8:1],,4,4,8-4[8:1],,3,3,8/1-6[8:1],,2,,1/7p3[8:1],,8,,7/4-8[8:1],,5,,4/6q2[8:1],,5,,1-5[8:1]/6,,8,8,1/7-4[8:1],,6,6,2-6[8:1]/7,,1,1,2/8-3[8:1],,7,7,8,5,5,,41,,7,8,7,,2,1,2,,38,,7,5,6,4,5,3,4,2,13,,56,,18,,3,,
8/1-4[8:1],,2,2,1-6[8:1],,8,8,1>4[8:1],,2,2,1<6[8:1],,8,8,1-4[8:1],,3,,1-6[8:1],,7,,1,,3,,4b/5b,,,,
1/8-5[8:1],,6,7,8-3[8:1],,2,1,8<5[8:1],,6,7,8>3[8:1],,2,1,8-5[8:1],,6,7,8-3[8:1],,2,1,8<5[8:1],,6,7,8-4[8:1],,2,1,8/7-3[8:1],,6,,1-5[8:1]/7,,8,,6-1[8:1],,7,,2,,4,,3,8,3,7,3,6,3,5,3h[8:3],,B8,,E7,,B5,,4p2[8:5]b/8p6[4:5],,,,,,,,,,,,,,,,,,,,,,,,,,,,2h[4:1],,
{48}1,8,7,6,5,4-2-8-6-4-2[48:40],3-1-7-5-3>2<1<8<7<6>5>4>3[2:3]b,,,,,,,,,,,,,,,,,,,,,,,,,,,,,,,,,,,,,,,,,,,,,,,,
{16},,,,,,,,,,,,,,,,1,,6,5,6,,3,4,3,,7,8,7,,2,1,34,,8,8,56,,
1,1,
{64}53,4,,,,,,,
{16}8,8,
{64}64,5,,,,,,,
{16}1,8,
{64}52,43,,,,,,,
{16}8,1,
{64}47,56,,,,,,,
{16}2,8,
{64}37,64,,,,,,,
{16}7,1,
{64}26,35,,,,,,,
{16}2,8,
{64}64,5,,,1,,,,8,,,,1,,,,
35,4,,,8,,,,1,,,,8,,,
63,45,,,2,,,,8,,,,1,,,,
56,23,,,7,,,,1,,,,8,,,,
1b/8b,2b/7b,3b/6b,4b/5b,
E
