&title=烈華RESONANCE
&artist=REDALiCE vs Kobaryo
&first=0.0685
&des=JDJDH
&lv_5=14+
&inote_5=(240)
{4}
,,,,
Ch[8:6],,,,
{8}
1b/8b,,,,2/A4/B4,,6/E5/D5,,,,7-3[8:1]/8,1,2<3[8:4],,E8f/B7/B8,,,,
1x,,8,,7,,26,,5<8[8:1],4,5>2[8:1],,5,,
8b/1b,,,,7/A5/B5,,3/E5/D5,,,,2-6[8:1]/1,8,7>6[8:4],,E2f/B1/B2,,,,
8x,,1,,2,,
{16}
3/E7,E6,E5,E4,E3,E2,E1,E8,E7/
2,1x,8x,7x,6x,5x,4x,3x,
{8}
6bh[8:3]/2b,,,4,3<5-1[8:2]/5,,7h[8:4],,,,2,,6>4-8[8:2]/4,,2h[8:4],,,,
7,,2V48[8:2]/5,,8,,7,,61,,25,,3,3,
4x/6,6,3/5x,3,4x/7,7,2/6x,2,3x/8,8,1/7x,1,6/8x,6,2/5x,2,
{16}
3,4,3,,6,5,6,,2,1,2,,7,8,7,,
B1,B2,B3,B4,B5,B6,B7,B8,E1,E2,E3,E4,E5,E6,E7,E8,
{4}
E1/C,E3/E7,E1/E5,3/7-3[8:1],8-4[8:1],1-5[8:1],2-6[8:1],
{16}
8b,Cf,,,
{8}
7x>2[8:2],,2x>5[8:2],,5x<8[8:2],,8,1,2-7[8:2],,7-4[8:2],,4-1[8:2],,1,,
6x<1[8:2],,1x>4[8:2],,4x<7[8:2],,7,8,1-6[8:2],,6,,4-8b[8:1],,,,
2x<7[8:2],,7x<4[8:2],,4x>1[8:2],,1,8,7-2[8:2],,2-5[8:2],,5-8[8:2],,8,,
3x>8[8:2],,8x<5[8:2],,5x>2[8:2],,2,1,8-3[8:2],,3,,5-1b[8:1],,,,
7<4[8:1],8,1,1-5b[8:1],,1x<6b[8:1],,1x,
2>5[8:1],1,8,8-4b[8:1],,8x>3b[8:1],,8x,
7<4[8:1],8,1x-3[8:1]*-4[8:1],1,1x-6[8:1]*-7[8:1],,1x,,
5bx,,3b/7b,2b-6b[8:1]/8b-4b[8:1],,2bx/8bx,,,
2-5[8:1],1,8,8<5b[8:1],,8xv3b[8:1],,8x,
7-4[8:1],8,1,1>4b[8:1],,1x,,
{16}
1x,8x,
{4}
5b/7bx,1b/3bx,6bx/8b,2bx<3b[4:3]/4b,
B5/B6/Cf,,,,A6/B6,A5/B5,A4/B4,A3/B3,
{8}
8h[8:3],,,3,4,,2h[8:4]/5,,,6,5,,4/7h[8:2],,3h[8:4],,,,4,3,
2h[8:4]/5,,4,,6h[8:2],,5,6,37,,2,1,
3h[8:3]/8,,,7,8,,1/6h[8:3],,,2,1,,3h[8:4]/8,,1,,
7,7,,6,6,,5,5,
{16}
3,4,3,,
{8}
5,46,3,24,6,6,
4b-6p1[8:3],,,,1b>3pp8b[8:8],,,8x,,,7x,,6,5,4x,,
5b-3q8[8:3],,,,8b<6qq1b[8:8],,,1x,,,2x,,3,4,5x,,
{6}
58,57,56,34,24,14,
{8}
2h[8:1],4h[8:1],6h[8:1],8h[8:1],
{16}
2,3,4,5,6,7,8,1,
25,,4,,3x,4x,3x,,6,,5x,6x,5x,,,,
{4}
4/7h[4:2],,B3/B4/Cf,,
8/1h[4:1],3h[4:1],5h[4:1],7V13V57[4:4],,,,,8,1,2,3-7b[8:2],,,,,
1/8h[4:1],6h[4:1],4h[4:1],2<2b[4:4],2,,,,1,8,7,6-2[8:2],6,,,,
{8}
A8/B8/1bxh[8:2],,,A7/B7,1h[8:2],,A6/B6,,1h[8:2],,A5/B5,,1bx/C,,,,
A1/B1/8bxh[8:2],,,A2/B2,8h[8:2],,A3/B3,,8h[8:2],,A4/B4,,8bx/C,,,,
A7/B7/3bxh[8:2],,,A6/B6,3h[8:2],,A5/B5,,3h[8:2],,A4/B4,,3bx/C,,,,
8<1[8:4],,,,,,,,3b/6,4,5,2/7b,4,5,1b/8b,,
{8}
1bxV35b[8:2],,8,7,6V42[8:2],,7,8,1>5b[8:2],,8,7-3[8:1],,7,,,
1bxV35[8:2],,5x,5x>2<7b[8:4],,2x,,7x<1[8:4],,,,,C,,,,
8bxV64b[8:2],,1,2,3V57[8:2],,2,1,8<4b[8:2],,1,2h[8:2],,3,4,5,
6-1b[8:1],,5,,3-8[8:1],,4,,7<5-3>1b[8:3],,,,C,,,,
{8}
7h[8:2]/8,,1,,7h[8:2]/2,,3,,7h[8:2]/4,4,4pp6[8:2]*qq2[8:2],,,,,,
3h[8:2]/5,,5,,3h[8:2]/6,6,6,,3/7-3[8:1],,2-6[8:1],,8-4[8:1],,8x/1,,
5x/3,3,6/4x,6,5x/2,2,7/3x,7,6x/1,1,8/2x,8,3/1x,3,7/4x,7,
{6}
58,68,78,12,13,14,
{16}
2,1,2,,7,8,7,,
{32}
3x,4x,5x,6x,7x,8x,1x,2x,3x,4x,5x,6x,7x,8x,1x,2x,
{4}
Ch[4:4],,,,1h[4:2],,8-4b[8:1],8b/5b-2[8:1],
{8}
5/7b,,5-2[8:1]/3,6,5/7b,,5/3,6,7b-4[8:1],8-3[8:1],7,8,,5,B3/B4/B6/B7,,
2-6[8:1],8-4[8:1],2,8-3[8:1]*-5[8:1],,8bw4[8:1],,8b`Cf,
,,,,26,5,4-7[8:1],3,
4/2b,,4-7[8:1]/6,3,4/2b,,4/6,3,2b-5[8:1],1-6[8:1],2,1,,4,B6/B5/B3/B2,,
78,,E7/B7/B8/E1,,21,,E3/B2/B1/E1,,4h[8:3]/5h[8:3],,,,3b-8[8:1]/6b-1[8:1],,3b/6b````E1,,
2bx/7bx,,3>8[8:1]/5,4,3/5b,5,5<8[8:1],4,2b-5b[8:1],1-6b[8:1],2,1,3,2,1,8,
7-3[8:1],1-5[8:1],7,1-6[8:1]*-4[8:1],,1bw5[8:1],,1b,
,,,,37,2,1,8,
7bx/2bx,,6<1[8:1]/4,5,6/4b,4,4>1[8:1],5,7b-4b[8:1],8-3b[8:1],7,8,6,7,8,1,
{16}
2bxh[8:2],,,,6,5,6,,4x/8bxh[8:2],,,,3,4,3,4,5x/1bxh[8:4],,,,,,,,7xp3b[8:1],,,,,,,,
{8}
1/C,,,,2,,2,,C,,3,4,3,,5,,C,,6,,7,,8,,1/C,,2,1,2,,1,,
8/C,,,,7,,7,,C,,6,5,6,,4,,C,,3,,2,,1,,
{16}
E8,E7,E6,E5,E4,E3,E2,E1,E8/
3x,2x,1x,8x,7x,6x,5x,4x,
{8}
3x/8,,8,,7,,7,,6,,6,,5,,5,,4,,4,,3,,3,,2,,2,,1,,1,,
8,8,1,1,7,7,2,2,
{16}
6,3,6,3,6,3,6,3,5,4,5,4,5-8z4b[4:3],4,5,4,
{4}
Cf,,,,
{16}
3b/5b,,,4b/7b,,,2b/6b,,1,8,7,6,5b-1b[8:1]/Cf,,,,
{8}
5/7b,,5-1b[8:1]/3,6,5/7b,,5/3,6,7b-3[8:1],8-4[8:1],7,8,,5,B3/B4/B5f/B6/B7,,
2-6[8:1],8-4[8:1],2,8-3[8:1]*-5[8:1],,8bw4[8:1],,8b`Cf,
,,,,26,5,4-8b[8:1],3,
4/2b,,4-8b[8:1]/6,3,4/2b,,4/6,3,2b-6[8:1],1-5[8:1],2,1,,4,B6/B5/B4f/B3/B2,,
7x-3[8:1]/8x-3[8:1],,E7/B7/B8/E1,,2-6[8:1]/1-6[8:1],,E3/B2/B1/E1,,4bxh[8:3]/5bxh[8:3],,,,3b-8b[8:1]/6b-1b[8:1],,3b/6b,A1/A8/E1f,
{16}
2bx/7bx,,,,2,4,3,4,1h[8:2],,,,7,5,6,5,8h[8:2],,,,1,8,1,8,27,,8,,3,6,4,5,
{8}
1-5[8:1],8-4[8:1],1,8>3[8:1]*<5[8:1],,8bw4b[8:1],,8b`Cf,,,,,26,
{16}
1,7,1,,8,,7,8,7,,6h[8:2],,5,,2,1,2,,3h[8:2],,4,,7,8,7,,6h[8:2],,5,,2,1,2,1,3b/8b,,,,
3,6,3,6,4,5,3,6,2,7,1,8,2,7,2,7,
{4}
2b<3b[4:3],,,,Cf,,,,
{8}
,,,,,4,5,3,2b-5[8:1]/1b,,
{32}
2/A1f,B1,C,B5,,,,,
{8}
7b-4[8:1]/8b,,
{32}
7/A8f,B8,C,B4,,,,,
{16}
1,8,2,7,
{32}
1,8,7,6,5,4,3,2,
{16}
1b-5b[8:1]/8b,,,,,Cf,,E
