&title=命に嫌われている。
&artist=25時、ナイトコードで。
&first=0
&des=Tane
&lv_4=9+
&lv_5=12
&lv_6=14
&inote_4=(200){1},,,,,,,,,,,{4},,{8}4,,2,,
{8}1,,,3,
,,4,,
,5,,,
6,,7,,
{8}8,,,6,
,,5,,
,4,,,
3,,2,,
{8}2,,,3,
,,5,,
{8}6,,,5,
,,3,,
{8}45,,,,
,,,,
{4}6,4,2,8,
{8}7,,,4,
,,3,,
{8}4,,,6,
,,8,,
{8}2^5[8:4]/5,,,,
,,,,
{8},,6,,
4,,2,,
{8}16,,,,
,,7,,
{8}38,,,2,
,,16,,
{8}3/8<3[8:6],,,,
,,,,
{8},,,,
5,,3,,
{8}12,,,82,
,,46,,
,56,,,
57,,38,,
{8}87,,,17,
,,53,,
,43,,,
42,,61,,
{8}34,,,12,
,,38,,
{8}56,,,78,
,,16,,
{8}3^6[4:2]/4,,,,
,,,,
{4}8,6,4,2,
{8}61,,,2,
4,,15,,
{8}78,,,1-4[8:1],
8,,,,
{8}38,,,7,
5,,84,,
{8}21,,,8-5[8:1],
1,,,,
{8}68,,,2,
4,,57,,
{8}18,,,2-5[8:1],
1,,,,
{8}6^3[8:4]/5,,,,
1h[4:1],,,,
{8}3^6[8:4]/4,,,,
8h[4:1],,,,
{8}57,,,8-4[8:1],
1,,2,,
{8}34,,3,,
56,,6,,
{8}42,,,1-5[8:1],
8,,7,,
{8}75,,6,,
42,,3,,
{8}56,,,7-4[8:1],
1,,2,,
{8}24,,1,,
8,,57,,
{8}56,,56,,
34,,34,,
{16}45,,45,,
36,,,,
45,,,,
27,,,,
{8}16,,,35,
,,17,,
2-5[8:1],,,,
6-1[8:1],,,,
{8}28,,,56,
,,37,,
16,,38,,
25,,47,,
{8}13,,,28,
,,1^4[8:1]/7^4[8:1],,
,,,,
5,5,3,3,
{8}8,,,16,
,,38,,
1/7-4[8:1],,,,
2-5[8:1]/8,,,,
{8}7,8,,2,
4,,56,,
3,1,,7-4[8:1],
8,,2,,
{8}2,1,,7,
5,,43,,
6,8,,2-5[8:1],
1,,7,,
{8}6,8^3[8:1],,7,
,,38,,
2,1,,8-4[8:1],
1,,2,,
{8}3,1^6[8:1],,2,
,,61,,
7,8,,1,
8,8,1,1,
{1},,,,,,,{4},,,25,
{4}4,3,,47,
5,6,,38,
{4}2,1,,16,
7,8,,25,
{4}3,4,5,6,
7,8,,47,
{4}6,5,4,3,
2,1,,,
{8}28,,,37,
,,1,,
46,,,,
37,,,,
{8}28,,,46,
,,37,,
1,,28,,
37,,46,,
{8}71,,,62,
,,8,,
53,,,,
6,6,4,4,
{8}8,,,17,
,,8,,
35,,,,
17,,,,
{8}24,,,,
57,,,,
46,,4,,
37,,,,
{8}25,,2,,
36,,6,,
47,,4,,
8,,1,,
{8}27,,,,
,,46,,
{4}3,27,{8},,,,
{8}2,,7,,
3,3,6,6,
4,5,36,,
,,,,
{8}47,,,28,
,,46,,
3-8[8:1],,,,
7-4[8:1],,,,
{8}35,,,87,
,,26,,
47,,25,,
38,,16,,
{8}42,,,35,
,,4^1[8:1]/6^1[8:1],,
,,,,
8,8,2,2,
{8}5,,,47,
,,25,,
4/6-1[8:1],,,,
3-8[8:1]/5,,,,
{8}6,5,,3,
1,,87,,
2,4,,6-1[8:1],
5,,3,,
{8}3,4,,6,
8,,12,,
7,5,,3-8[8:1],
4,,6,,
{8}61,,1,2,
38,,8,7,
1b/6b,,1,2,
3b/8b,,4,3,
{8}2b/5b,,5,6,
4b/7b,,2,3,
4b/8b,,7,6,
5b/1b,,1b,8b,
{8}2b/7b,,,56,
,,28,,
3^8[8:1]/4,,,,
7^4[8:1],,,,
{8}15,,,34,
,,17,,
12,,56,,
78,,34,,
{8}15,,,34,
,,37,,
56,,,,
6,4,7,3,
{8}8,,2,1,
,8,1,,
2^5[8:1]/6^1[8:1],,,,
4v1[8:1]/8v5[8:1],,,,
{8}26,,,5,
,,47,,
,6,,,
5,,3,,
{8}73,,,4,
,,52,,
,3,,,
4,,6,,
{8}57,,,1,
,,25,,
24,,,8,
,,47,,
{8}56,,,,
,,,,
7,,5,,
3,,1,,
&inote_5=(200){1},,,,,,,,,,,{4},,{8}4,5,2,,
{8}1/6h[4:1],,3,3,
5,,45,,
{8}3,5,2,,
45,,16,,
{8}3/8,,7,7,
4,,46,,
{8}7,4,6,,
37,,46,,
{8}25,,1,8,
2,,37,,
{8}46,,7,1,
6,,25,,
{8}34,,5,4,
6,,36,,
{4}45,36,27,18,
{8}18,,1,1,
6,,27,,
{8}18,,8,8,
3,,27,,
{8}18,,1,1,
5,,26,,
{8}18,,8,8,
4,,37,,
{8}18,,2,2,
5,,36,,
{8}18,,7,7,
4,,36,,
{8}18,,1,26,
,8,37,,
{8}56,,34,,
12,,78,,
{8}1,2,31,,
1,8,17,,
{8}8,1,2/8^5[8:3],,
2,,4,,
{8}4,3,24,,
5,6,57,,
{8}5,4,5^8[8:3]/3,,
3,,2,,
{8}1,8,71,,
1,2,31,,
{8}8,7,6^1[8:3]/1,,
2,,4,,
{8}3h[4:1],,7,16,
,2,38,,
{8}34,,56,,
78,,12,,
{8}3^8[4:1]/8,,,7,
7,,16,,
{8}34,,2,1,
8-5[8:1],,7,,
{8}6^1[4:1]/1,,,2,
2,,83,,
{8}65,,7,8,
1-5[8:1],,3,,
{8}3v8[4:1]/1,,,7,
7,,6,5,
{8}4^7[4:1],,2,1,
8-4[4:1],,1,2,
{8}3^6[8:3],,,7,
8,,,7,
{8}6^3[8:3]/3,,,2,
1h[4:1],,,,
{8}1,2,3,4,
5^8[4:1],,4,3,
{8}2^5[4:1],,1,8,
7,6,57,,
{8}4,3,2,1,
8^5[4:1],,1,2,
{8}3^8[4:1],,4,5,
6,7,68,,
{8}5,6,7,8,
1^4[4:1],,8,7,
{8}6^1[4:1],,5,4,
3,2,31,,
{8}8,7,6,5,
4^1[8:1],,6,7,
{16}8,1,8,1,
8,1,8,1,
8,,8,,
1,,1,,
{8}1/8,1,1,5/1,
1,1,7/1,1,
1/4^7[8:1],1,2,3,
4/8,8,8,8,
{8}8/3,8,8,4/8,
8,8,2/8,8,
8/5,8,7/2,7,
8/4,7,6/2,2,
{8}1/5,1,1,2/6,
2,2,1/5,2,
3/7,3,37,3,
48,4,5-1[8:1]/1,5,
{8}6,7,8,8,
3,2,1,1,
17,2,28,7,
{16}1,8,1,8,
1,8,1,,
{8}16,1,1,15,
1,1,14,1,
2,15,,24,
1-5[8:1]/5,,8,8,
{8}83,8,8,84,
8,8,85,8,
7,48,,75,
8-4[8:1]/4,,1,1,
{8}15,1,2,3,
48,8,7,6,
5,1-5[8:1],,1,
8,8,26,26,
{8}48,7,6,5,
48,1,2,3,
{16}4,8,4,8,
4,8,4,8,
15,,15,,
37,,37,,
{1},,,,,,,,
{4}3,4,8,7,
3,2,6,5,
{4}2,4,6,7,
4,2,6,8,
{4}6,5,1,2,
6,7,3,4,
{4}7,5,3,2,
5,7,3,1,
{8}28,,,37,
,,1,,
46,,,,
37,,,,
{8}28,,,46,
,,37,,
1,,28,,
37,,46,,
{8}71,,,62,
,,8,,
53,,,,
4,3,2,1,
{8}8,,,17,
,,8,,
35,,,,
17,,,,
{8}28,,7,3,
5,,1,,
46,5,4,6,
37,,28,,
{8}35,,3,5,
4,,26,,
8,1,2,3,
7,,51,,
{8}37,,4,,
35,,3,4,
{4}1,28,{8}8,,71,,
{8}1,,8,8,
1,1,8,8,
1,2,7,8,
{16}1,8,2,7,
1,8,2,,
{8}8/1,8,8,4/8,
8,8,3/8,84,
8/5^2[8:1],8,7,6,
5/1,1,1,1,
{8}1/6,1,1,5/1,
1,1,7/1,16,
2/5,27,3/8,3,
2/5,2,3/7,3,
{8}8/4,7,6,6/2,
6,6,6/4,7,
8/3,8,72,7,
61,5,4-8[8:1]/8,4,
{8}3,2,71,1,
6,7,83,8,
82,7,71,2,
{16}8,1,8,1,
8,1,8,,
{8}83,8,7,74,
7,6,65,6,
64,7,,74,
8-4[8:1]/3,,1,1,
{8}16,1,2,25,
2,3,34,3,
35,2,,25,
1-5[8:1]/4,,8,7,
{8}61,1,1,2,
38,7,6^3[8:1],8,
6b,,1-5[8:1],8,
1b,,8-4[8:1],1,
{8}8b,,2^5[8:1],1,
2b,,7^4[8:1],8,
7b,,3^6[8:1],1,
3b,,8bp1[4:1],7b,
{8}6b/8b,,,5,
,,6,5,
47,4,3,4,
25,1,8,7,
{8}16,1,2,1,
38,7,16,2,
38,3,15,1,
47,4,26,2,
{8}53,4,3,4,
25,1,2,1,
3v8[4:1]/8,,7,,
5,6,7,8,
{8}1-5[8:1],,1,8-4[8:1],
,8,1,,
15,15,37,37,
26,15,26,48,
{8}37,,6,4,
5,,37,,
8,4,7,,
46,,37,,
{8}16,,2,5,
3,,26,,
2,5,3,,
26,,35,,
{8}46,,7,1,
6,,25,,
35,,2,8,
3,,47,,
{8}46,,6,4,
7,,3,,
45,,36,,
27,,18,,
&inote_6=(200)
{1},,,
{8},,,,
8h[1:4],,,,
{1}B8`B7,
C1`E6,
B3`
B4,
{2},1h[2:7],
{1}B8`B7,
C1`E6,
{16}B3`B4,,,,
,,,,
,,,,
,,,E1,
{4}E8,,{8}3,,2,,
{8}6b/1h[8:3],,,8h[8:3],
,,3h[8:3],,
{8},5h[8:5],,,
B4,,E3,,
{8}8h[8:3],,,1h[8:3],
,,6h[8:3],,
{8},4h[8:5],,,
B5,,E4,,
{8}3h[8:3],,,8h[8:3],
,,A5,,
{8}6h[8:3],,,1h[8:3],
,,4h[4:4],,
{8}C1,,,,
,,,,
{4}E4/E6,B3/B6,B2/B7,E2/E8,
{8}8,8,1-3-5-7[8:3],,
A3,,C,,
{8}8,8,1-3-5-7[8:3],,
A5,,C,,
{8}8,8,1-3-5-7[8:3],,
A7,,C,,
{8}8,8,1-3-5-7[8:3],,
C,,C,,
{8}8,8,1^4^7^1-3-5-7-1[8:10],,
A3,,C,,
{8}A5,,C,,
A7,,C,,
{8}2h[8:2],,4,4h[8:2],
,6,6<2v4[4:3],,
{8},,,,
,,,,
{8}1,1,8-6-4-2[8:3],,
A6,,C,,
{8}1,1,8-6-4-2[8:3],,
A4,,C,,
{8}1,1,8-6-4-2[8:3],,
A2,,C,,
{8}1,1,8-6-4-2[8:3],,
C,,C,,
{8}1,1,8^5^2^8-6-4-2-8[8:10],,
A6,,C,,
{8}A4,,C,,
A2,,C,,
{8}7h[8:2],,5,5h[8:2],
,3,3v6[2:1]/5v4[2:1],,
{8},,,,
,,,,
{8}1h[8:4]/8,8,,,
3h[8:2],,4h[8:2],,
{8}5h[8:2],,8,8,
7-4[8:1],,A7,,
{8}8h[8:4]/1,1,,,
6h[8:2],,5h[8:2],,
{8}4,4,3,,
2-5[8:1],,A2,,
{8}1h[8:4]/8,8,,,
3,3,4,4,
{8}5,5,8,8,
7-4[8:1],,A7,,
{8}3^6[8:4]*^6[8:4]/6,,C,,
E1/B8/B1,,,,
{8}6^3[8:4]*^3[8:4]/3,,C,,
E5/B5/B4,,,,
{8}1,1,3,3,
5,5,7,7,
{8}1h[4:3],,E7/B6/B7,,
E3/B3/B2,C,E7/B6/B7,,
{8}4,4,2,2,
8,8,6,6,
{8}4h[4:3],,E7/B7/B6,,
E3/B2/B3,C,E7/B7/B6,,
{8}5,5,4,4h[8:2],
,3,3,,
{8}2-4-6-8[4:2],,B1,,
B5,,B1,,
{8}8-4-8[4:2]*-5v8[4:2],,,,
,,,,
{16}1,8,1,8,
1,,,,
B5/B6,,,,
B8/B7,,,,
{8}2h[8:2]/B6/B5,C,B7/B8,3h[8:2],
B6/B5,C,2/B7/B8,,
4-1[8:1]/E6/B5,C,E8/B8,,
1-4[8:1],,B6,,
{8}2h[8:2]/B7/B8,C,B6/B5,3h[8:2],
B7/B8,C,2/B5/B6,,
1-4[8:1]/B7/B8,C,1/B5/B6,,
E6/2,,4/B6,,
{8}2h[8:2]/B7/B8,C,B5/B6,3h[8:2],
B7/B8,C,2/B5/B6,,
4-1[8:1]/B7/B8,C,B5/B6,,
4,4,3/B6/B5,2,
{8}2h[8:2]/B7/B8,C,B5/B6,2h[8:2],
B7/B8,C,1/B5/B6,,
4-1[8:1]/B7/B8,,B5/B6,,
{16}1/B5/B6,,C,,
B7/B8,,,,
{8}1/B5/B6,C/1,B7/B8,2,
2/B5/B6,C,3/B7/B8,3,
B5/B6,2/C,B7/B8,2,
1-5[8:1],,1/E6,,
{8}1/B7/B8,C/1,B5/B6,2,
2/B7/B8,C,3/B5/B6,3,
B7/B8,2/C,B5/B6,3,
4-1[8:1],,4/E6,,
{8}1h[8:4]/E8/B8,C,B5/E6,,
E8/B8,C,2/B5/E6,,
1-4[8:1]/E8/B8,C,B5/E6,,
2-4[8:1]/B7/B8,,B5/B6,,
{8}1h[8:2]/E8/B8,C,B5/E6,2h[8:2],
E8/B8,C,3/B5/E6,,
{16}3/B7/B8,,C,,
1/B5/B6,,,,
4,,,,
1b,,1b-5-1[4:6]/7b-2-4[4:6],,
{1},,
1q5[4:6]/7-2[4:6],,
7-1-7[4:6]/2-6v5[4:6],,
4pp4b[4:6]*qq4b[4:6],,
{4}4^1[4:2],B5,B8,E7,
4^1[4:2],E7,B8,B5,
{4}8^5[4:2],E3,B4,B1,
1^4[4:2],E7,B5,B8,
{4}6x,5x,1x,2x,
6x^8-4[4:2],B6,B2,1x,
{4}7x,5x,3x,2x,
5x^7-3[4:2],B1,B5,1x,
{8}5^8[4:2],4,5,,
B4,,B1,,
1^4[4:2],8,1,,
C,,,,
{8}6^1[4:2],5,6,,
B5,,B2,,
2^7[4:2],1,2,,
C,,,,
{8}5/7,,C1,,
4/2,,C1,,
5/7,,C1,,
4/2,,C1,,
{8}8^5[4:2],1,8,1,
2,,1,,
1-4[8:1]/8-5[8:1],,,,
B7/A7/B2/A2,,,,
{8}4^1[8:1],5,4,E7,
8^5[8:1],1,8,E3,
4^1[8:1],5,4,5,
6,,,,
{8}2,2,1,1,
8,8,7,7,
1-4-6-1[4:2],,A4,,
A6,,A1,,
{8}3/7V13[4:2],,,,
,,B5/E5/E6,,
{4}B1/E1/E2,2V46[4:2]/6,{8},,,,
{8}1,,8,8,
1,1,8,8,
2,2,7,7,
{16}1,8,1,8,
1,,,,
{8}2h[8:2]/B6/B5,E7,B7/B8,3h[8:2]/C,
B6/B5,E7,2/B7/B8,C,
1-4[8:1]/E6/B5,E7,E8/B8,,
5-8[8:1]/B3/B4,,B1/B2,,
{8}7h[8:2]/B3/B4,E3,B1/B2,6h[8:2]/C,
B3/B4,E3,7/B1/B2,C,
8-5[8:1]/B4/B3,E3,8/B1/B2,,
B3/7,,5/E4/B4,,
{8}2h[8:2]/E6/B5,,B6/B7,3h[8:2],
E6/B5,,2/E6/B5,,
4-1[8:1]/B8/B7,,E7,,
4/B6/E6,B5,B4,E4,
{8}7h[8:2]/B2/B1,E3,B3/B4,7h[8:2]/C,
B1/B2,E3,8/B3/B4,C,
5-8[8:1]/B1/E2,E3,E4/B4,,
{16}8/E4,,B4,,
B5,,E6,,
{8}1/B6,1/E7,B7,2/A7,
2/E8,,3/B76,3/C1,
B5,2/B6,C1,2,
1-5[8:1]/B5,E6,1/B6,E7,
{8}1/B7,1,E8,2/B8,
12/B7,C1,3/B6,3/E6,
B5,2/E5,A5,3,
4-1[8:1],B6,4/E7,B7,
{8}1h[8:4]/E6/B5/B6,,E8,,
E5/B5/B4,,2/E8,,
1-4[8:1]/E6/B5/B6,,E8,,
3-1[8:1]/E5/B5/B4,,E8,C1f,
{8}1h[8:2]/E6,,E8,2h[8:2]/C1f,
E6,,3/E8,C1f,
{16}3/E6,,,,
1/E8,,C1f,,
3/E6,,,,
2/E8,,C1f,,
{8}1b-5[8:1]/E6,,6,B6,
,,A2/E2/B2/A8/E8/E1,,
47,,B2/B3/E3,,
25,,B6/E7/B7,,
{8}1h[8:2]/8,,4,2h[8:2]/C1,
,,3/8-4[8:1],,
8/2-5[8:1],,7-4[8:1]/2,,
7/1-5[8:1],,18,,
{8}8-4[8:1]/E4,,3,B3,
,,A7/E8/B7/A1/E2/E1,,
52,,B7/B6/E7,,
47,E6,E3,E8,
{8}1-5[8:1],,1,8-4[8:1],
,8,1,,
15,15,37,37,
28,35,17,46,
{8}1h[8:3],,2,2h[8:3],
,3,3h[8:3],,
5,5h[8:5],,,
B5,,E7,,
{8}8h[8:3],,7,7h[8:3],
,6,6h[8:3],,
4,4h[8:5],,,
B4,,E6,,
{8}6h[8:3],,8,8h[8:3],
,,C1,,
3h[8:3],,1,1h[8:3],
,,C1,,
{8}3h[8:6]/6h[8:6],,,,
,,,,
45,,E6/B5/B4/E4,,
E7/C/E3,,E8/B8/B1/E2,,
