&title=來都來了
&artist=洪姊 vs 500
&first=0
&des=りわ
&des_5=りわ
&lv_5=13+
&inote_5=(69){16},(800),{1},,{16},8-4[0.3##0.15]/2-6[0.3##0.15],
{4},,,{8},E1,
B8/B1,B7/B2,B6/B3,B5/B4,{4}E5,
,,,{8}1h[4:1],6>5-2[4:3],
{1}7h[4:1],
{4},,{8},1,{2},{4}4,
2,3,
{1},,,,,,,,,,{4},,,{16},,,3-6[0.15##0.15],
{4},{16},,,3/2,{4},,{16},,,7pp8-5[0.15##0.15],
{4},,{16},,,8v1-5[0.15##0.15],
{1},,{8},2<8>2<8[0.15##0.15],
{1},,{4},{8},3,
{4},{16},5,
{4},{16},4,{2},{8}2,
{2},{8}5,{4},,,{16},,,4,
{4},,{16},,,8q1[0.15##0.45],
{1},,,,,{4},,,7pp8-5[0.15##0.15],
{2},{1}8v1-5[0.15##0.15],
,,,{8},3,
{16},,,8,{4},{16},2/1,{4},,{8},{2}1/2,
{4},1/2,,{8},1/2,
{1},,,,,,,,,,{4},,,D5h[8:1],
{1},,{4},,{16},D7fh[32:1],
E7fh[32:1],B7fh[32:1]/B6fh[32:1],B8fh[32:1]/B5fh[32:1],B1fh[32:1]/B4fh[32:1],B2fh[32:1]/B3fh[32:1],E3fh[32:1],
{1}D3fh[32:1],
{4},4h[4:5]/5h[4:5],{1},,,,{2},{1}A5h[16:5],
,{4},,{8},7pp8-5[0.15##0.15],
{4},,{8},8v1-5[0.15##0.15],
{1},,{4},,,{8},5h[2:1]/6h[2:1],
{1},{4},,,7,
{8}3,{4},{8}4,
,6,{1},,{2},{4}E1,
E2,E3,E4,E5,
E6,E7,{2}E8,
{1},,{2},7pp8-5[0.15##0.15],
{4},8v1-5[0.15##0.15],{1},{2},{16}4,
{8},{16}3,,,,6,{8},7,,3,
{16},2,{1},{8},{4}1b/8b,
{1},,{4},7pp8-5[0.15##0.15],
{2},8v1-5[0.15##0.15],
{1},,,,{4},{16}8x-4[0.15##0.15]/1x-5[0.15##0.15],
2x/7x,{8}3x/6x,{1},,{4},{16},,,8x-4[0.15##0.15]/1x-5[0.15##0.15],
2x/7x,3x/6x,{4},,,{8},{4}7pp8-5[0.15##0.15],
{2},{4}8v1-5[0.15##0.15],
{1},,{4},,,{8},7,
{16},5,{4},,,{16},2b,
{1},,,6qq4<5-7>8v6[0.15##0.30],
,,{16}3h[4:3]/6h[4:3],
{4},,,{16}E4,B4,B5,
{1}E6,
,{4},{16},3,
{4},{16},,,5,{4},{8},{4}2,
{2},{1}7bh[4:1]/6bh[4:1],
,,,,,{4},,,1b-6[2:1]/2b-5[2:1],
{1},,{16},,,4b,
{2},{4}7pp8-5[0.15##0.15],
{2},8v1-5[0.15##0.15],
{1},,,{4},3bxh[1:1]/E4h[1:1]/B4fh[16:0],
{1},,{4},,,6qq4<5-7>8v6[0.15##0.30],
{1},,,{2},{1}6qq4<5-7>8v6[0.15##0.30],
,,{4},,,{8},D8,
A8,D1,A1,D2,A2,B2,C,E5,
{1}D5,
6qq4<5-7>8v6[0.15##0.30],
,{4},,,{8}B8,
B1,
B2,B3,B4,B5,B6,B7,{1},,{4},,,{2}2p7b[4:3],
{1},,{2}7,
3,
{8}7,{2},{8}4,{2},{4}7pp8-5[0.15##0.15],
{2},{1}8v1-5[0.15##0.15],
,{4},,,6,
,7pp8-5[0.15##0.15],{2},{1}8v1-5[0.15##0.15],
,,{4},,,5,
,{8},6b,{2},{4}7pp8-5[0.15##0.15],
{2},{4}8v1-5[0.15##0.15],
{1},,{4},,{8},3h[8:9],
{4},{8},5h[2:1],
{1},{4},{2}7pp8-5[0.15##0.15],
{4},8v1-5[0.15##0.15],{1},{4},{8},3,
{4},{8},6,,4,{4},{1}8,
{4},6b,{2},{4}7pp8-5[0.15##0.15],
{2},{4}8v1-5[0.15##0.15],
{1},{2},4,
4,4,
{1},,{4},6bx,
,6qq4<5-7>8v6[0.15##0.30],
{1},{4},,,{8},A8/E1/B8/B1/A1,
{4},6qq4<5-7>8v6[0.15##0.30],{1},,,,{2},{4}7<5[4:1],
7x,8p4[4:1],8x,
7<5[4:1],7x,8p4[4:1],8x,
7<5[4:1],7x,8p4[4:1],8x,
{1},,,{2},{4}7<5[4:1],
7x,
8p4[4:1],8x,{1},,,,{4}7<5[4:1],
7x,
8p4[4:1],8x,{1},,{4},3pp5>4-2<1v3[0.15##0.30],
{1},,,,,{4},,{8},7<5[4:1],
,7x,
,8p4[4:1],,8x,,7<5[4:1],,7x,
,8p4[4:1],,8x,,7<5[4:1],,7x,
,8p4[4:1],,8x,{4},7pp8-5[0.15##0.15],
{2},8v1-5[0.15##0.15],
{1},(180)1xq5[8:5]/2x>4[8:5],
{4},,,{64},5,,,,7,{32},{64}2,{16},{64}8,,4,
,,,7,{16},,,(800){8},7pp8-5[0.15##0.15],{4},,{8},8v1-5[0.15##0.15],
{1},,,{4},,,{8}5-8[2:1],
{4},{8}1-4[4:3],{1},{2},{4}4,
5,{2}6,
{4},,{8},7pp8-5[0.15##0.15],{4},,{8},8v1-5[0.15##0.15],
{1},{2},4bxh[8:1],
7pp8-5[0.15##0.15],
{4},8v1-5[0.15##0.15],{1},{4},{8},7pp8-5[0.15##0.15],
{4},,,{8},A5,
{1},,,,,,,,,,,,,,{2},(200){4}5qq1[4:3]/5pp1[4:3],
{32}B4/B3/E4/B6/E7/B7,{8},{32}B4/B3/E4/B6/E7/B7,{1},{8},{16}5qq1[4:3]/5pp1[4:3],
{1},,{8},(800){4},
{2},{4}7pp8-5[0.15##0.15],
{2},{4}8v1-5[0.15##0.15],
{1},{4},,,2bx,
{8},8bx,{4},{8}2bx,{4},{8}8bx,
{4},3bx,{8},1bx,{4},{8}3bx,
{4},{8}1bx,{1},{2},{8}D8,
A8,D1,A1,D2,A2,B2,C,
E5,D5,{2},{4}6b,
,7pp8-5[0.15##0.15],{2},{1}8v1-5[0.15##0.15],
{4},,,4bx,
{8},3bx,{4},{8}4bx,{4},{8}3bx,
{4},2bx,{8},3bx,{4},{8}2bx,
{4},{8}3bx,{4},2bx,
,(200),{8}1<4[8:5],8-5[4:1],{1},{4},,,(300),
8>2v7v4<6[4:3],
,,,1>1>1[4:3],
{1},,,{16},,,1>1>1[4:3],
{4},{2}E2/B1/B8/E8/B7/B6/C/B3/A4/D5/A5/E4,
{4},,{8},8>2v7v4<6[4:3],{4},,,{8},1>1>1[4:3],
{1},,{2},(800){4}2q7[4:3],
,3,
,,,4b,
,,{8},6,{4},,,{2}3,
{8},8,{4},2,5,
{2},4,
{4}7,5,{8},8,{2},{4}5h[2:1],
{2}6h[8:7],
{1},,{2}8h[8:1],
{4}6h[8:1],1h[8:1],
,7h[8:1],,{8},4h[4:1],
{4},{8},7h[8:1],{4},1h[4:1],
{2},{8}8h[4:1],{4},{8}3h[8:1],
{1},,,{4}5b,
6b,{2}4b,
{4},,,6b,
{1},,,{4},{8},6b,
{1},,,{8},(200)1qq5[8:3]*-5v4v3[8:3],
{4},,,{2}B1/B8/B7/B6/B5/B4/B3/B2,
{4},,{8},{16}6,4,{4}5,
{1},{4},{16},,,1b,
{1},{4},{8},B8/B7/B6/B5/B4/B3/B2/B1,
{4},E1/E8/E7/E6/E5/E4/E3/E2/B1/B8/B7/B6/B5/B4/B3/B2,,{16}7,{8},{16}3,
{8},{32}6,{16},{32}4,{4},,{16},,{32},3h[32:3]/7h[32:3],{4},{16},{4}3h[4:1]/6h[32:13],
{1},,,{4},5qq1-5[4:3]/5pp1-5[4:3],
,,,A5,
{1},{16},7b,
{1},{4},,{8},{4}3pp8-4-8-4-8[4:3]/5qq8-4-8-4-8[4:3],
,{8},{16}Cf,Cf,Cf,Cf,Cf,Cf,{4}A8f,
,,,E5h[8:1]/E3h[8:1],
{16}D4,E4,B4/B3,C,B7/B8,E8,{8}D8f,{1},{4},,,{16},5h[16:3],
,4,{8},3,5,4h[8:1],
{16},6,{8}3,{16}7,{8},{16}3,{4},{8},{64}7h[8:1],2h[8:1],{1},,,{4},{16},,{96},{24}5,
{16},,,{48},{24}4,{1},{4},,,{16},,,{48},{24}3h[8:3]/6h[24:5],
