&title=超度-Go Beyond-
&artist=Daily天利
&first=0.13999999
&des_1=沙发阿伟
&des_2=沙发阿伟
&des_3=沙发阿伟
&des_4=沙发阿伟
&des_5=沙发阿伟
&lv_5=14+
&des_6=沙发阿伟
&des_7=沙发阿伟
&des=沙发阿伟
&inote_5=(120)
{1},
{4}1xs5[16:6],,,
{16}6,6,5,7,8xh[8:1]/4xh[8:1],,,8xh[8:1]/4xh[8:1],,,8x<5[8:1]/4x,,1b/3,,,,3,3,4,,5xh[8:1]/2xh[8:1],,,5xh[8:1]/2xh[8:1],,,5x/2x>5[8:1],,1b/6,,,,
{32}E1,B8,B7,,E3,B3,B4,,
{12}6/5x,4x/2,1/7x,2/3x,7/5x,4x/3,
{16}8/1b,,,,
{32}D1,D8,D7,D6,
{16}2/D5,2,2bh[16:3],,,,2h[16:3]/8-5[8:2],,,,2/8,,,,,,,,
{4}4h[8:6]/3xv8-2-5[4:2],,,,7bV13-8[8:4]/5h[8:4],,,
{16}E8,E7,E6,,3xh[8:1]/E5,,,,E5/6xh[8:1],,,,2x,2,1,3,7x,7,8,6,
{32}1,2,3,4,8,7,6,5,1,2,3,4,5,6,7,8,
{32}1b/7b,,,,6b/2b,,,,3b/5b,,,,6,,6,,
{16}5-2[12:1],,78,,5,7,7,,1<6[10:1]/2,,83,,1,4,4,,8V61[8:1]/5h[16:1],,5h[16:1],,8/5h[16:1],,5h[16:1],,5,5,7,7,3,3,1,1,8-4[12:1]/2,,6-1[14:1]/5,,8,,6,,2V48[8:1],,7-5[16:1]/5,,2,,7,,1b>4[12:1],,8,7,61,,,,6b/5,6V84[8:1]/5b,,7/4b,,6b/5,,,2>5[12:1],2,,1,2,8,8,,7-3[12:1],7,,6,7,5,5,,24,2/4>2<1[10:1],,6,6,4,5,,6,6,8,8,
{24}7,5,6,2,4,3,
{16}8V62[16:3],,4,,4,4,4,,3V15[16:3],,8,,6,6,6,,7,7,5,5,3,3,1,1,
{32}8,7,6,5,1,2,3,4,6,5,7,4,8b,,,,
(240)
{4}13,78,64,12,7-5[8:1],8,8-4[8:1],1,,34,75,12,7<3[8:2],1,1,
{16}2,4,2,4,2b,,,,
{8}1,1,4,4,3,3,
{16}5,,3x,2,1,,5x,6,7,,4x,3,2,,6x,7,8<4[8:2],,,,
{8}1b,,2V46[8:2],,8b,,7bh[4:2],,,,
{16}5x,6x,5x,6x,5x,6x,5x,6x,5xV31-4[8:4],,,,
{8}7,,7,,7,,8-6[8:1],,1,,2h[8:3],,
{16}1,8,7,6,5pp1[8:4],,,,
{4}3,3,3,2-4[8:1],1,8h[8:3],
{16}1,2,3,4,5,,,,
{8}7,7,5,5,3,3,1-5[8:1],,7-3[8:1],,2h[8:3],,
{16}1,8,7,6,5-1[8:1],,,,35,,,,82,,82,,8/2>6[8:2],,,,7h[8:2],,,,,,,,
{12}8,8,6,7>5[8:18],5,,
{4},,,,4h[4:2],,,,2h[8:12],,,,1<8<6>4[8:6],,,,3h[4:1],,3h[4:1]/E5,,
{8}3,4,3,,3h[8:2]/E5,,,,3,3,5,5,4,4,6,6,75,75,75,75,8xh[8:2]/4xh[8:2],,,,1b-6[8:1],,,5b,,,4b-8[8:1],,5b,,,,7b-3[8:1],,1b,,2b-5[8:1],,,6b,,,6b,,
{6}75,75,7/5-8[8:1],75,,,
{8}71,7,7/B2/B3,,28,2,2/E7/B6,,6,63,6,61,6/B4/B3,6,6/B8/B1,,7,7,86,86,
{24}1,2,3,4,5,6,7,8,1,2,3,4,
{4}5/7b-5[8:1],8b-4[8:1],1b-3[8:1],,B5h[8:2],
{24}E7,E8,E1,E2,E3,E4,
{8},7x/5,7/5x,,
{16}6,5,6,,3,4,3,,7-4[8:1],,8,,71,,,,3,4,3,,5,4,5,,
{24}E6/B4h[8:4],E7,E8,E1,E2,E3,,,,,,,
{4}8b-6[8:1],1b-5[8:1],2b-4[8:1],,D7h[8:3],
{24}D8,D1,D2,D3,D4,D5,8b/D6,1,2,3,4,5,6b,7,8,1,,,
{8}3-5[8:1],,83,,7<5[8:1],1,17,,
{24}E6h[8:2],,,,,,8,1,2,3,4,,E4h[8:2],,,,,,1s5p8[8:4],8,7,6,5,,
{4},,,
{16}2,8,2,8,2b,,,,,,,,7h[4:1]/3h[8:2],,,,,,,,A7,E7,E6,A5,A1,E1,E8,A7,A3,E3,E2,A1,4bx,,,,75,,,,75,,7,8,1,2,3,4,8,1,2,3,4h[8:1]/6h[8:1],,,,4h[8:1]/6h[8:1],,,,6,5,6,,74,,74,,
{24}D1,D8,D7,D6,D5,,D1,D2,D3,D4,D5,,Chf[8:2],,,,,,,,,,,,8,1,2,3,,,8,7,6,5,,,Chf[8:2],,,,,,,,,,,,
{8}6-4[8:1],6,2-8[8:1],2,6>4[8:1],6,2,2,
{16}3x,4x,3x,4x,3x,4x,3x,4x,5/2b,,,6b/1,,,7b/8<2[8:11],,
{24}B8,Cf,B4,,,,
{4},,,,,,8,8-2-7-3-6-4[8:10],,3h[4:4],,,,,2v3-5[8:10],7v6-4[8:10],,,,,,,,1>4[8:8],D1h[8:2],
{16},A8,D8,A7,D7,A6,D6,D5,
{4},,,6,7bh[8:8]/5h[8:8],,,,,,
{8}E7,E5,E6,,2h[8:8]/4h[8:8],,,,,,,,,,,,E3,E5,E4,,6x/E5,,6,,6/E4,,6x,,6x/E3,,6,,6/E2,,6,,6x/E1,,1,1,7,,26,,
{4}1b-5[8:1],1/7b-4[8:1],3/7b,2b,1xh[8:2],
{8}7,7,5,6,4,5,3xh[8:2],,4,4,2,4,3,5,4xh[8:2],,8,8,5,7,4,6,3b,3b,,2b-4[8:1]/6b-8[8:1],,6b/2b,,,8xh[8:2],,5,5,6,6,4,4,7xh[8:2],,5,5,
{12}6,5,6,3,4,3,
{8}2xh[8:2]/5h[16:3],,,25,1,2,3,4,5b<8[8:1],,5/2b>5[8:1],,1/2b,,,,8-3-1-7[8:8],,4,,4,,4,,4,,4,,4,3,2/8V64v7[8:8],,1,,1,,1,,1,,1,,1,,1,2,3/5<8[8:2],,4,,3>8[8:2],,4,,6V82[8:2],,5,,4V28[8:2],,5,,7-5[8:1],,7/1-3[8:1],,1/8-4[8:1],,8/2-6[8:1],,28,,7,7,5,5,3,3,1>4q5[4:3],1,,,,,,,,,
{24}7b,6,5,4,,,1b,2,3,4,,,8b,7,6,5,,,2b,3,4,5,,,
{8}7-5[8:1],,74,,2>5[8:1],5-1[8:1],2,6,8-3[8:1],,78,,7<5-1[8:2],5,7,4,2-5[8:1],,82,,7V15[8:2],1,7,2,3,34,,,
{24}D5/3x,D6,D7,D8,D1,,2x<7[8:1],,,3x/1,,,2/4-1[8:1],,,,,,
{8}4,,7V51[8:2],1,7,2,3<6[8:1],,13,,8b>2-6[8:2],4b,8,3,3-5[8:1],
{16},7,3,,,,
{8}8-4[8:1],7-5[8:1],8,7,B1/B2/E2,,E7/B6/B7,,4w8b[8:1],,4b,,
{24}D1f,D2,D3,D4,D5,,8bx,7x,6x,5x,,,1bx,2x,3x,4x,,,D1f,D8,D7,D6,D5,,D1f,D2,D3,D4,D5,,8bx,7x,6x,5x,,,1bx,2x,3x,4x,,,D1f,D8,D7,D6,D5,,D1f,D2,D3,D4,D5,,8bx,7x,6x,5x,,,1bx,2x,3x,4x,,,8bx,7x,6x,5x,,,,,,
{8}24,24,24,E5h[8:2],
{24}A6,A7,A8,A1,A2,A3,,,,
{4}4bx-8[8:2],,7,,
{8}6bx-1[8:2],6bx,,,
{16}2h[8:1],,,2h[8:1]/8h[8:1],,,28,,7-4[8:1],,,,
{8}7/1-5[8:1],,8-3[8:1]/1,,84,,
{16}4,2,3,1,2,8,1,7,
{24}8,1,2,3,4,5,6,7,8,1,2,3,
{4}4/6h[4:1],5h[4:1],7h[4:1],4h[4:1],5h[4:1],3h[4:1],
{8}4q8[8:1],2,4,,1h[4:1],,7h[4:1],,2h[4:1],,8h[4:1],,3h[4:1],,1h[4:1],,2-5[8:1],2,8,,6xh[8:2],,B5,,7/5h[4:1],,E7,,8xh[4:1],,E1,,7/1h[4:1],,E7,,7-4[8:1],7,8,1,1-5[8:1],8,7p4[8:6],7,,,,,,,,,2-6[8:1],2,7-4[8:1],7,1,1,
{16}5,6,7,8,1-6[8:1],,1,,2-5[8:1],,2,,7,,7,,4,3,2,1,6,,6h[8:2],,8,1,2,3,7,,7h[8:2],,1,2,3,4,6,5,6,5,6,,,,7-1[8:1],,7,,3,,,,
{16}2,1,2,1,2,1,2,1,2,,28,,2,,26,,6h[8:2],,8,1,2,3,4,,7,,7h[8:2],,1,2,3,4,57,8,1,3,4,5,6h,7h,8h,2,3,4,5,6h,7h,8h,
{24}1h/2h,3,4,5,6,7,8,1,2,3,4,5,6,7,8,1,2,3,4,5,6,7,8,1,2bV48[4:2]/7bV51[4:2],,,,,,,,,,,,,,,,,,,,,,,,,,,,,,,,,
D7,E7,C,E3,D3,
E
