&title=Tiferet
&artist=xi/Sta
&first=-0.2
&des=Ayuri
&lv_5=14
&des_5=Ayuri
&demo_seek=30.0
&inote_5=
(140){4},{16},,,,,,,,,,,,3-7[16:1],
5,,3/C,,,{8}D8,D7,D6,{16}6-2[16:1],4,,6/C,
,,{8}D3,D4,{16}5,4,,E7/E3,,,{8}1/8,2/7,
3/6,5/4h[8:1],{16},6h[8:1]/E4,,,2h[8:1]/B7,,,8h[8:1]/C,,,,,,6-2[16:1],
{8}4,{16}6/C,,,D2,,D3,,D4,,3-7[16:1],{8}5,
{16}3/C,,,D7,,D6,,4,{8}5,E3/E7,{16},8/1,,7/2,
,6/3,,4/5h[8:1],,,{8}3h[8:1],{16},7h[8:1],,,1h[8:1],,,(128),
8x/E2,8x/E3,,1x/E8,1x/E7,(118),7x/E3,7x/B3,,2x/E7,2x/B6,(108),6x/B2,6x/B1,(98),3x/B7,
3x/B8,(88),5x/C,5x/B1/B8,(78),4/5,3/6,(138)7b<1[8:5]/2b>8[8:5],,,,,,,,,,,,,,,,,(140){8}2h[8:1],
{16}5,6h[8:1],,3,{8}2h[8:1],
{16}6,5h[8:1],,,2,6,2,1<6[8:1],3,8,,1b,,3,3,5h[16:3],
,,{8}3-7[16:1],4/6,3,8p4[8:1],4V61[16:3],8,{16}E3,E2,
,,{8}C,{16}6,5,7,8>3[8:1],6,1,,8,,6,6,4h[16:3],
,,{8}6-2[16:1],5/3,6,1q5[8:1],5V38[16:3],1,{16}E8,E7,
,,{8}2x/6x<1[8:1],5/1,{24}2,3,4,{16}5,5,,8,{8}8<7-5[8:1],4,
8/3V15[4:1],1,{4}3/4,{16}6bh[8:1],,,4bw8[16:1],,,{8}A4f,
{16},,2,6,3,5,{8}4V28[8:1],7/1,4V68[8:1],,4,
{16}1,1,7,7-3b[8:1],4,3/5,,7,,,{8}2-7[16:1],3/5,{16}2,8bxh[16:3],
{32},,,,1,2,3,4,{16}7,5,6,4,8,8,,2/1,{8}3v4[8:1],6v5[8:1],
3,6,2<6[8:1],6q3[8:1],{4}2,{16}E5,B5/B4,,2/7h[16:3],
,,3,6,4,7,2,5,1,1,,7/8,{8}6-2[8:1],3-6[16:1],
6,3,7>3[8:1],5/3p6[8:1],{4}7,{16}4h[8:1],,,5h[16:3],
,,{8}4>1[8:1],{16}4,5,6,7,A8,B8,,2h[8:1],,4,3,5-2[16:1],
,4,6,5,,,{8}7h[8:1]/1h[8:1],{16},,1/2,3/8,,5/6,{8}7v5b[4:1]/4V28b[4:1],
,,,,4-2[16:1]*-6[16:1],8,4,{16}7,1,
6,2,5,3,E6,E4,,4/5,{4}6/3>8-2[4:1],{16}8,7,{8}6,
5-3[8:1],3q8[8:1],5,{16}1<6[16:1],2,,2,{48},,,,,,{24}3,2,1,6,7,8,
{16}4v1>2[8:1],,,5,{8}4b,{16}8,8,{8}7>8v5[8:1],{16}2,2,{8}7b/4>1[8:1],3,
{4}4b<7[8:1],4b,{8}1/8,{16}1/2,3/8,{8}7b/4b,{16}8/7,6/1,
{8}2b/5b,{16}4,4,3,5,,2/4,,4/6,,,{8}3b/5b,{16}6,6,
8b,7,{8}1,2b/6b,{16}3,5,1b,7,4,6,2b,8,3,7,
{4}4b>8[4:1],{8}8<4[4:1],A6,{4}4V28[4:1],8V64[4:1],
{2}4s8[8:1]*s8[8:1],(138){16}1,1,7,7,2,3,{8}4,
{16}6,5,7,7,1,8,2,2,4,3,{8}5,{16}E6,B3,B7,E2,
{8}B8/B1,3h[8:1],6h[8:1],{16}4,7,3,6,1,8,{8}2>5[8:1],{16}3,1,
{8}2,7<4[8:1],{16}6,8,{8}7,{4}3>1-5[2:1],C,
5>3-7[2:1],C,7<4[4:1],C,
{16}8,8,3,6,6,4,8,8,1,1,6,3,3,5,1,7,
{8}2h[16:1]/8h[16:1],8h[16:1]/2h[16:1],8/2,{16}7,5,{8}7,{16}2,4,{8}2,{16}5,5,
4,4,6,5,,6/5,,4/5,,4/3,{8}5/2h[8:3],{24},,,,,,7,
8,1,2,3,4,5/7,8,1,2,3,4,{6}5/7h[6:1],{12}5,4/7,3/7,2/7,
{8}7/1>4[12:1],8,1,(140){16}5,5,6,4h[8:1],,6,{8}5,{16}4>2[16:1],5,
,5<7[16:1],{8}4,{16}4,5,,4,5-7[16:1],4,,4-2[16:1],{8}5,{16}5,4,
,5/4,,1/8,,2,3,2,7,6,7,4/5,3/6,2/7,8xh[8:1],1,
,1xh[8:1],{8}8,{32}8x,7,6,5,{16}1xh[8:1],8,,8xh[8:1],{8}1,{32}1x,2,3,4,{8}6,
6,{16}3,4,4,3,5,5,4,6,5,4,3,{32}6,5,{16}6,4,
4,5,3,3,{8}2/7,8/1,{16}2-5V73[0.4286##0.4286],8,,8,{4}2,
(280){8}5x,5x,,3h[16:1],4h[16:1],3h[16:1],4h[16:1],2h[16:1],
1h[16:1],2h[16:1],8,1h[8:3],,,7,7,
{4}6/4,{8}2,2,{4}3/5,{8}6,5,
7,4,5,3,4,2,5,4h[4:1],
,6,{4}5,7/8,7/8,
{8}4,5h[4:1],,3,{4}4,2/1,
2/1,{8}6,6,4,4,5,5,
3,3,7,7,3/6,4,{4}7h[4:1],
{8}3,6h[4:1],,2,{4}5h[4:1],1,
{16}1b,2,3,4,5,6,7,8,1,8,7,6,5,4,3,2,
(140){8}1h[8:1],C,{16},,,,,,,,,,4/6,B6/B4,
,,,,,,,,3/5,B5/B3,,C,,,{8}2/8,
7/1,4/5,{16}8bh[8:1]/6bh[8:1],,,1bh[8:1]/3bh[8:1],,,{8}5bh[8:1]/4bh[8:1],{16},B6/B3,,,2-6[16:1],
8,,2b/C,,,{8}D6/E6,D7/E7,D8/E8,{16}7-3[16:1],1,,7b/C,
,,{8}D3/E3,D2/E2,{16}8h[8:1],1h[8:1],,7h[8:1],{8}2h[8:1],{16}6,3,5,4,
{24}7,5,6,4,{6}5h[24:5],{24},{8}3h[16:3],{16},6h[16:3],,,,,(128),4/E6,
{8}4/E7,{16}5/E4,5/E3,(123),3/E7,{8}3/B7,{16}6/E3,(113)6/B2,,2/B6,(100){8}2/B5,{16}7/B3,(93)7/B4,
,1/C,1/B5/B4,(83),8b/1b,7b/2b,(140){8}3b>5[8:5]/6b<4[8:5],{16},,,,,,,,,,,,,,,6h[8:1],
,A1,{8}2h[8:1],{16}A7,6h[8:1],,A2,
1h[8:1],,,7,4,6,5>2b[8:1],7,{8}4,5,{16}7,7,{8}1h[16:3],
{16},7-3[16:1],,8/2,,7,,4q8[8:1],,8V25[16:3],,4,,E7,{8}E6,
{16},C,,2,1,3,4<7b[8:1],2,{8}5,4,{16}2,2,{8}8h[16:3],
{16},2-6[16:1],,1/7,,2,,5p1[8:1],,1V74[16:3],,5,,E4,{8}E3,
{16},6x/2x>5[8:1],,1/5,{48},,,6,,7,,8,,{16}1,{8}1,{16}4,4>3-1[8:1],,8,,4/7V51[4:1],
,5,,7/8,,,,2bh[8:1],,,{8}8bw4b[16:1],{16},A8f,,,,6,
2,7,1,8V64[8:1],,3b/5b,,8V24[8:1],,,,8,,5,
5,3,3-7[8:1],8,{8}7b/1b,{16}3-5[8:1],6,{8}6,3,{16}6,7,{8}8-4[8:1],
{16},5,8,3,,B6/B2,,B5/B3,,C,,3/1,{8}8/4,5h[8:1]/7h[8:1],
{16},4,6,5,,6,7-5[8:1],4,{8}4,7,{16}3,2,{8}1-5[8:1],
{16},4,1,6,,8/4,,6/2,,C,,6/8,{8}1/5,6/8>4-2[16:3],
{16},5,,7,,1,,4/8,{8}5/7,4,{16}6/4,7,{8}8-4[8:1],
{16},5,8,3,,1/5,,3/7,,6,{8}6bh[8:1]/C,{16}3,3bh[8:1]/C,,,,4/5,
,E6/E4,,E7/E3,,E8/E2,,1/8,,2,7,1,8,2,
{24}7b,8,1,2,3,4,{4}1/5-1[16:1],{32},,,,,,1x>8[8:3]/8x<1[8:3],{64}E1,B8,Cf,B4,{32}E5,{4},,{16},,2,
1b,2,7,8b,7,2,1b,3,
7,8b,6,4,5,3,6,3,4b,3,6,5b,6,3,4b,2,
6,5b,7,{32}1b/8b,2/7,3/6,4,5,6,7,8,{16}1-5b[16:1],,,,1v4-2[16:25],{4},,{16},,{32}5,
6,{16}7v4-6b[16:13],
E
