&title=INTERNET ANGEL
&artist=Aiobahn +81
&first=-0.19
&des=DgsEOs as "ANGEL"
&lv_5=13+
&inote_5=(100)
{4},,,
{4}1,
{1}2xpp4[4:14]`8xqq6[4:14],,,,
{2}4qq2[2:1],6pp8[2:1],2pp3[2:1],8qq7[16:7],3pp3[4:2]*qq3[4:2],,
(105)
{4}3x,
(113)
{4}2x,
(125)
{4}1x,
(135)
{4}8x,
(140)
{8}7x,6x,
(150)
{8}5x,4x,
(170)
{16}3x,2x,1x,8x,
(175)
{24}7x,6x,5x,4x,3x,2x,
(180)
{4}1b,
{16}2<7[8:1],5,2,,
{4},
{16}2<7[8:1],5,2,,
{4},
{16}2,5,2,,6,4,6,,3,5,3,5,
{4}2,
{16}2<7[8:1],4,2,,
{4},
{16}2<7[8:1],4,2,,
{4}5V36[2:1],,,
{4}1-4[8:1],4-2[8:1],,4-2[8:1]/3,,4-2[8:1]/3,,4V25[4:1]/3,5-1[8:1],
{4}6-8[8:1],,6-8[8:1]/7,,6-8[8:1]/7,,6V85[4:1]/7,5-1[8:1],
{4}8-2[8:1],,7/8-2[8:1],,8-2[8:1]/1,,7/8V27[4:1],7-3[8:1],
{4}6-4[8:1],,6-4[8:1]/5,,6-4[8:1]/7,8-6[8:1],7-5[8:1]*-1[8:1],,
{8}2-4[8:1]/4,,6,,2-4[8:1]/4,4,6,,2-4[8:1]/4,,6,5,2-4[8:1],5,6,,
{8}7-5[8:1]/5,,4,,7-5[8:1]/5,4,3,,7-5[8:1]/5,,3,4,7-5[8:1],4,3,,
{8}1-7[8:1]/7,,6,,8-2[8:1]/5,,5,6,7/1-7[8:1],,6,,8-2[8:1]/5,5,6,,
{8}7-1[8:1]/3,,2,,8-6[8:1]/4,4,3,,7-1[8:1]/3,3,2,2,
{16}3,1,3,1,3,1,3,1,
{8}2xqq7[8:5],3x,4x,5x,6x>3[8:1],,6b,,
{8}2xqq7[8:5],3x,4x,5x,6x>3[8:1],,6b,,
{8}2xqq7[8:5],3x,4x,5x,6x>3[8:1],,6b,,
{8},7-2[8:1]/3-6[8:1],,3b/7b,,1bs5[8:1],1b,,
{4}8qq6[8:1],
{24}2x,3x,4x,,,,
{4}8qq6[8:1],
{24}2x,3x,4x,,,,
{4}8qq6[8:1],
{32}1x,2x,3x,4x,,,,,
{4}8qq6[8:1],
{32}1x,2x,3x,4x,,,,,
{16}5x,6,5x,6,5x,6,5x,6,4x,5,4x,5,4x,5,4x,5,
{16}3x,4,3x,4,3x,4,3x,4,2x,3,2x,3,2x-7[8:1],3-6[12:1],2x,3,
{1}Cf,
{32}8b,7b,6b,5b,,,,,,,,,1b,2b,3b,4b,,,,,,,,,
{16}4bx/5bx,4bx/5bx,4bx/5bx,4bx/5bx,
{4}4b-8[8:1]/5b-1[8:1],4/5,
{16}2bxpp4[8:1],,,7bx,,,6bx,,5bxw1[8:1],,,,5b,,,,
{16}2bxpp4[8:1],,,8bx,,,7bx,,6bxw2[8:1],,,,6b,,,,
{16}2bxpp4[8:1],,,4bx>8[16:2],,,6bx,,7bxqq5[8:1],,,5bx<1[8:1],,,3bx,,
{2}4bw8[8:1],
{4}1bx-5[8:1]/8bx-4[8:1],1b/8b,
{12}8b,2bx,2bx,1bx,3bx,3bx,2bw6[8:1],,,2bx,,7bx,5bx,5bx,5bx,6bx,6bx,6bx,
{12}5b-3[12:1],,5bx,7b-5[12:1],,7bx,1b-7[12:1],,1bx,
{24}3b,4bx,5bx,6bx,7bx,8bx,
{4}1bw5[8:1],1bx,
{8}1bx-7[12:1]*-3[12:1],1bx,1bx,,
{8}1b,
{16}2<7[8:1],5,2x,,6,,5,,4>1[8:1],3,4x,,5,,6,,2<7[8:1],5,2x,,6,,
{4}5w1[8:1],5,
{16}8x,,7>2[8:1],4,7x,,3,,4,,5<8[8:1],6,5x,,4,,3,,7>2[8:1],4,7x,,3,,
{4}4w8[8:1],4,
{4}1hx[8:1]/7hx[8:1],8bh[32:1],
{16}2b/B6f/B5/E6,,,3bx,,,4bx,,5bw1[8:1]/B2f/B3/E3,,,,5b,,,,
{16}2b/B6f/B5/E6,,,3bx,,,4bx,,5b/B2f/B3/E3,,,6bx,,,7bx,,8b/B4f/E4/E5,,,1bx,,,2bx,,
{32}3b,4x,5x,6x,,,,,6b/7b,8x/5x,1x/4x,2x-6[8:1]*-6[8:1]/3x-7[8:1]*-7[8:1],,,,,
{2},
{8}6pp5[4:14],,,4bqq5[8:25],
{2},,,,,,,5hbx[8:5],
