&title=Chemical Colours1
&artist=Blacklolita x BEMANI Sound Team -Expander-
&first=0.03
&des=ninomae_P
&lv_5=14
&inote_5=(175)
{1},,
{4}5<1[2:1]/3,3,3,3,
{8}3/7h[4:1],,2,6h[4:1],,4,48,,
{4}4>8[2:1]/6,6,6,6,
{8}1-5[8:1],7<3[8:3],1,7,,1,1,,
{4}2>6[2:1]/8,8,8,8,
{8}7h[8:1]/1h[8:1],,17,2h[8:1]/6h[8:1],,35,17,,
{4}7<3[2:1]/1,1,1,1,
{16}2,6,2,6,3,7,3,7,4,3,2,1,7,6,5,4,
{4}1b,,,,{8}2,4,3,5,,6,,2,,,37,,4,5,3,3h[8:4]/6,,7,,8z4[4:1],,,,,
{8}2b/1b,2,28,2,27,2,26,2,5b/4b,5,53,5,52,5,51,5,
{16}8b,7,1,6,2,5,3,4,
{32}1,2,3,4,5,6,7,8,1,2,3,4,5,6,7,8,
{4}5b/1bs5[4:1],,7-3[8:1],,
{16}2/4h[8:1],,3,,2/4h[8:1],,3,,2,4,3,,4<7[8:1]/2h[8:1],,,,{32}4-8[8:1]/1,2,3,,,,,,41,2,3,,,,,,{16}2-6[8:1],1,3,1,2,,8,,
{16}5h[8:1]/7h[8:1],,,,6,4,6,,5h[8:1]/7h[8:1],,,,6,4,6,,5-1[8:1]/7-4[8:1],,,,5b/7b,,,,8,,,17,,,26,,
{16}2-5[8:1]/6-1[8:1],,,,2b/6b,,,,7,5,6,,5>2[8:1]/7h[8:1],,,,{32}5-1[8:1]/8,7,6,,,,,,5/8,7,6,,,,,,7,,8,,6,,1,,7,6,5,4,1,2,3,4,
{4}8h[8:1],7h[8:1]/5h[8:1],1h[8:1]/6h[8:1],{32}3/4h[8:1],2,1,8,7,6,5,4,
{16}3-7[8:1],,,,1-4[12:1]*-6[12:1],,,,1b,,,3/7,,,3/7,,
{16}64,6,3,,7h[8:1]/5,,3,,64,6,3,,7h[8:1]/5>2[8:1],,3,,{32}5-1[8:1]/8,7,6,,,,,,5/8,7,6,,,,,,{16}7-3[8:1],8,6,8,7,,1,,
{16}2h[8:1],,5,3,7h[8:1],,4,6,1h[8:1],,4,2,8h[8:1],,5,6,
{4}1bw5[8:1],1b,{16}37,,,37,,,46,,8<5[8:1]/2>5[8:1],,,,8b/2b,,,,8,7,6,5,7-3[8:1],6,5,4,7,,,,46,,37,,2,1,3,8,{32}2,3,4,5,8,7,6,5,
{8}1h[8:1],,8h[8:1]/2h[8:1],,1h[8:1]/6h[8:1],,3h[8:1]/4h[8:1],,
{8}1>4[8:1]/6<1[8:1],,,,{16}7/5-1[8:1],,4,6,5b,,,,
{16}7b,3,7,3,6,4,6,4,5b,5,5,5,5,,,,3b,3,3,3,3,3,3,,2b-5[8:1]/4b-7[8:1],,,,2<4[4:1]/4,,,,,,,,1,,,,7b,5,6,6,2b,4,3,3,8b,8,8,8,8>3[8:1],,7,,6b-2[8:1]/8b,,5,,6b/4b,,,,4bw8[8:1],,,,4>5[8:3],,,,,,,,,,,,4b,4,4,4,4-8[8:1],4,4,4,4b,,,,26,,,,
{16}6pp1[2:1],,,2,,,3,,3h[4:1],,,,,,,,3pp8[2:1],,,7,,,6,,6h[4:1],,,,,,,,
{16}1b>4[8:1]/4b<7[8:1],,,,1/4w8[8:1],,,,,,,,2,6,3,5,4b,4,4,4,4-8[8:1],4,4,4,4b,,,,6,,15,,2b-5[8:1]/4b-8[8:1],,,,4qq5[8:3]/2,,,,6b<1[8:1],,,,,,,,8b,5,7,4,6,3,5,2,4bp8[8:1]*q8[8:1],,,,,,,,1b>4[8:1]/7b<4[8:1],,,,,,,,2b/6b,,,,
{16}2,6,3,5,4b,4,4,4,4,4,4,,6b,6,6,6,6,6,6,,
{16}2pp5[2:1],,,6,,,7,,7h[4:1],,,,,,,,7pp4[2:1],,,3,,,2,,2h[4:1],,,,,,,,
{8}8w4[4:1],,,,,,7qq4[4:3]/2,7/2,,,,,1,1,,,2pp6[4:3]/8,2/8,,,,,7,7h[8:3],,,,,{16}4,5,4,5,{8}3b/6b,,4qq1[4:3]/6,46,,,,,7,7,,,2/6pp4[4:3],2/6,,,,,3,3,,,2V46[4:1],2,6>8[8:3],6,7,8-4[6:1],7,6,5w1[8:1],,,,
{16}4>8[2:1]/5,,,,6,,,,7,,,6,,,5,,
{16}6/2,,,,7/3,,6,,3,,5,3,6,,2,,
{16}5<1[2:1]/4,,,,3,,,,2,,,3,,,4,,
{16}8,,2h[8:1],,7,,3h[8:1],,6,,4,5,4,,26,,
{16}7<3[2:1]/1,,,,1,,,,1,,,1,,,1,,
{16}8h[8:1]/2h[8:1],,,,82,,7/3,,37,,82,73,64,,28,,
{16}2>6[2:1]/8,,,,8,,,,8,,,8,,,8,,
{16}7,5,6,5,8,5,6,5,1,8,7,6,5h[4:1]/4,3,2,1,
{8}8-4[8:1],4V26[4:1],8,,{24}5,6,7,{8}8h[8:1],5-1[8:1],4,3-8[8:1]/5,2,7V51[4:1]/3,7,1<4[4:1],2,2b,,
{8}3V15[4:1],5,3,{16}6,7,{8}8h[8:1],6-2[8:1],8h[8:1],6,,1-5[8:1]/7,5>7[4:1]/3,1b/6b,,{24}6,5,4,3h[8:1],,,1,,,
{8}4-8[8:1],8V62[4:1],4,,{24}1,2,3,{8}4h[8:1],1-5[8:1],8,7-4[8:1]/1,6,3V15[4:1]/7,3,5>8[4:1],6,6b,,
{8}7V51[4:1],1,7,{16}2,3,{8}4h[8:1],2-6[8:1],4,2pp5[2:1],,,7,7,,8,8h[8:1],,
{8}2V48[4:1]/6,7,8>5[4:1],7,5-1[8:1],6-8[8:1],,,2v5[8:1],5>1[6:1],2,{24}1-5[8:1],8,7,{8}6,7,8b,,
{8}7-4[8:1]/3,4V61[4:1],7,{16}1-5[8:1],2,{8}3,3-7[8:1],2,13,,2-5[8:1]/6,3/5V38[4:1],2b/6b,,{24}7,6,5,{8}4,26,
{8}7V51[4:1]/3,2,1<4[4:1],2,4-8[8:1],3-1[8:1],,,7v4[8:1],4<8[6:1],7,{24}8-4[8:1],1,2,{8}3,2,1b,,
{16}35,,35,,,,6,5,4-8[8:1]/7,,47,,6-3[8:1],,7,,2-7[8:1]/6,,1,,2/4-8[8:1],,5,,4/1-5[8:1],,2,,1b/3,,,,
{16}2b/6b,,,{32}2b/6b,35,4,,{16},,,2b/8b,,,{32}2b/8b,37,46,5,{16},,,
{16}2,1,3,8,4,7,5,6,2,3,4,5,8-4[8:1],7,6,5,
{1}4,
