&title=stereo future
&artist=BiSH
&first=0.02
&des=AGE
&lv_5=13+
&inote_5=(174){4},,,,,,{2}5p4[8:11],
,,,6<4b[4:5]/3>5b[4:5],
{8},,,,,,,,,,3,
4,{4}1b/5,{8}6,6,
{4}5,{8}7h[8:3],5,,4,{4}6-4[8:1],
3,2h[4:1],{8}5-8[8:1],,,3,
4pp4[8:3],4qq4[4:1],,,,,{4}5h[4:1],
4,3/7,5/1-5[8:1],{8}7,6<1[8:1],
,1,{4}2h[4:1],{8}4,4,3,5,
{4}6/2-7[8:1],4,1/5-7[8:1],{8}2,3-1[8:1],
,6V48[16:5],{4}5-7[16:3],{8},,,5/1,
{2}2-7[8:1]/6-3[8:1],{4}1b/5,{8}2,4,
{4}3h[4:1],{8}5,2h[4:1],,4,{4}3-5[8:1],
{8}6,6,{4}7h[4:1],{2}5-2[8:1],
{8}6,6,3,4h[4:1],,2,6,6,
{4}5,7/5,4/8-4[8:1],{8}2,3>8[8:1],
,8-4b[8:1],{4}7h[4:1],{8},5,6,4,
{4}3/7-2[8:1],5,4/8-6[8:1],{8}2-4[8:1],1,
,,{4}8p4[8:1]/5p1[8:1],{8},,2,2,
4/3,5/4,{4}5/6-2[8:1],{2}3b>6[4:5],
{4}5,{8}4,4,,5,{4}5,
4h[4:1],5-1b[8:1],{2}6pp5b[8:9],
{4}3,{8}4,4,,3,{4}3,
2h[4:1],4h[4:1],{2}3-1[8:1],
5h[4:1]/3-7[8:1],{8}1,6,{4}4-2[8:1],
8-4[8:1],1,{2}3V15[2:1],
{8}5-3[4:1],,,8h,7h,6h,{4}5h,
3/4,5/4-8[8:1],{2}6pp5b[4:3]/4bqq5[4:3],
{8},,,,,6,{4}6,
4/5h[4:1],1-5[8:1],{2}1V38-4-7-5[1:1],
{4}6,{8}7,7,,8,{4}8,
{8}4,3,4/2,6,{4}5/7-2[8:1],{8}1,3-6[8:1],
,5,7,7,5,6,{4}8>3[8:1],
7/8-4[8:1],4,{8}2,2,1,8/3,
,7,{4}1/6,{8}4/8,7,6/1,2,
3/8,4,5<8[8:1]*>2[8:1],6,{4}5b,{8}3,4b/2b,
,6,{4}7b/5b,{8}4/3,5b/2b,,6/5,
{4}7b/4b,{8}8,1,{4}4/2<7[4:1],7<3[4:1],
3>6b[4:1],6,{8}5,4,3/6,{16}2,1,
{8}2,{16}7,8,{4}7>2b[8:1],{16}2,3,{8}4,{24}8,7,6-1[12:1],5,,,1,
2,{12}3,{24},,7,6,5<8b[8:1],4,,,{8}8,1,2-4[8:1],4-8[8:1],
{4}2,{24}7,6,5,1,2,3,{4}4h[4:1],1<6[8:1],
{8}5-1[8:1],5,{4}7-3[8:1],{8}2,2,{4}1/5,
{8}8,8,7/1,6,{4}4/5<8[8:1],1-5[8:1],
2h[4:1],{24}4,5,6,1,2,3-8b[8:1],{4}4-7b[8:1],4/3,
6<1[8:1],3bpp6[8:5],{8},8,{4}8h[4:1],
,5/1,{8}3/4,4/5,6/5,{16}7,8,
{8}7,{16}2,1,{4}2<7b[8:1],{16}7,6,{8}5,{24}1,2,3-8[12:1],4,,,8,
7,{12}6,{24},,2,3,4>1b[8:1],5,,,{8}1,8,7V51[16:3],4v2[16:1],
,,,3h[4:1],4,5,{4}6/2-6[8:1],
{8}5-8[8:1],5,{4}3-7[8:1],3/1<6[8:1],1/5-1[8:1],
{8}8,8,7,6,2b,5,4/3,8b,
4,5b/6b<1[8:1],,2bh[4:1],{24},,,3,4,5,6pp6b[8:3],7,8,1,2,3,
{2}4v2[8:1],{24}1b,2,3,4<7[8:1],,,,,,8b,1,2,
{4}3-6[8:1],{24}7bqq8b[8:3],8,1,2>8[4:1],,,,,,,,,,,,,,,{8}2/4,
3,4/5,6,{4}3b/7bv4[8:1],{8}8>3[8:1],8,
5,6,{4}7/5-1[12:1],7b-3[8:1],7b,
{24}2v5[8:1]/8v5[8:1],3/7,{12}4/6,,{4}8/2-6[8:1],4-7[8:1],{8}1,3qq4[4:1],
,8,7,6,{4}5bw1b[8:1],5b,
4bw8b[8:1],4b,{8}7-5[8:1],8,7/4,3,
2-8[8:1],1,7/2,6,5-8[8:1],3,5/1-4b[8:1],2,
1/7s3b[4:1],8,{4}3>6b[4:1],{8}4h[4:1],,,3,
2/6,2/6,5/1,1/5,{2}4<7[8:1]/8>3[8:1],
{24}6b,7,8,1,2,3,4/6b-2b[8:1],7,8,1,2,3,{8}4,,,3h[8:1],
4,2,4,3h[8:1],4,5,3h[8:1],4,
6,5,{4}7/4,{8}6h[8:1],5,7,5,
6h[8:1],5,4,6h[8:1],5,3,4h[8:1],2,
4,3,{4}5/2,{8}8/7h[4:1],8,,8/1h[4:1],
{4}8,{8}8/6h[4:1],8,,8/2h[4:1],{4}8,
{8}6,5,{4}7/3,{8}1h[4:1],8,7,1h[4:1],
7,6,1h[8:1],5,4/3,2,6/5,7,
2>4[8:1],4-8[8:1]/5<7[8:1],
E
