&title=Energy Drink
&artist=Virtual Riot
&first=0
&des=Hinata's Melon Drink
&wholebpm=128
&des_2=-
&des_3=-
&des_4=
&des_5=Hinata's Melon Drink
&des_6=
&lv_5=14
&inote_5=(128)
{1},
{4}2h[4:7]/7h[4:3],,,,4h[4:7],,,,8h[4:7],,,,6h[4:3],,,,
{4}7h[4:3]/8,1,2,3,4h[4:3]/5,6,7,8,1h[4:3]/2,3,4,5,7h[4:3]/8,1,2,3,
{16}1h[4:1],,,,8,,3,4,,,8/7,,8/7,,,,
{16}8h[4:1],,,,1,,6,5,,,1/2,,1/2,,,,
{16}4h[4:1],,,,5,,8,7,,,3/4,,3/4,,,,
{16}5h[4:1],,,,4,,7,8,,5,3,4,2,,7/8,1/6,2/5,,,,
{16}2,,8<5[8:1],4,5<8[8:1],,1,,3,,,,
{16}4h[8:1],,,,7,,1>4[8:1],5,4>1[8:1],,8,,6,,,,
{16}5h[8:1],,,,1/2,,8/7,,3,4,2,5,1,6,8,7,1bh[4:1],,,,3h[16:3],,,5h[4:1],,,,7h[8:1],,1b,3b/4b,,
{16}6h[8:1],,,,5/7,,5/7,,8-5[8:1]/4-1[8:1],,5-8<5[4:1]/1-4>1[4:1],,,,
{16},,,,,,4/2,,4/2,,1-4[8:1]/5-8[8:1],,4-1>4[4:1]/8-5<8[4:1],,,,
{16},,,,,,6/4,,6/4,,3-6[8:1]/7-2[8:1],,6-3<6[4:1]/2-7>2[4:1],,,,
{16},,,,,,7h[16:3],,,3h[8:1],,6,4,5,3h[8:1],,5,4,6,,,,
{16}8/1,,1/8,,3<6[8:1]/7p2[8:1],,6>3<6[4:1]/2q7p2[4:1],,,,
{16},,,,,,5/4,,4/5,,2<7[8:1]/6q3[8:1],,7>2<7[4:1]/3p6q3[4:1],,,,
{16},,,,,,1/8,,1/8,,4>1[8:1]/8<5[8:1],,1>4v1[4:1]/5<8v5[4:1],,,,
{16},,,,,,2h[16:3],,,4h[8:1],,6h[8:1],,8h[8:1],,1,8,1,
{32}8b>2[8:1],7,6,,4,,,,
{32}8<6[8:1],,,,4,,,,
{32}8-4[8:1]*-4[8:1],,,,4w8[8:1],,,,
{32}8w4b[8:1],,,,,,,,
{4},
{32}1<7[8:1],2,3,,5,,,,
{32}1-5[8:1]*-5[8:1],,,,5w1[8:1],,,,
{32}1w5b[8:1],,,,,,,,
{4},
{32}8>2[8:1],7,6,,4,,,,
{32}8-4[8:1]*-4[8:1],,,,4w8[8:1],,,,
{32}8w4b[8:1],,,,,,,,
{4},
{16}6h[16:3],,,2h[8:1],,7,1,8,2h[8:1],,7,1,8,,
{32},,,,8>2[8:1],7,6,,4,,,,
{32}8-4[8:1],,,,4V68[8:1]*V28[8:1],,,,
{32}8s4b[8:1]*z4b[8:1],,,,,,,,
{4},
{32}1<7[8:1],2,3,,5,,,,
{32}1-5[8:1],,,,5V71[8:1]*V31[8:1],,,,
{32}1z5b[8:1]*s5b[8:1],,,,,,,,
{4},
{16}3/7,,4,8,3,7,2,6,1,5,8,4,3b-6[8:1]/7b-2[8:1],,,,7-4[8:1]/3-8[8:1],,,,3<6b[16:3]/7,,,,7p4[1:6],8,1,2q5[16:93],
{1},,,,,,,,
{32}
,8/5h[4:1],,,,,,1,2,3,,,,
1/6h[4:1],,,,,,2,3,4,,,,
2/7h[4:1],,,,,,3,4,5,,,,
3/8h[4:1],,,,,,4,5,6,,,,
4/1h[4:1],,,,,,5,6,7,,,,
5/4h[32:6],6,7,,1,2,3,,,,
7/3h[4:1],,,,,,6,5,4,,,,
6/2h[4:1],,,,,,5,4,3,,,,
5/1h[4:1],,,,,,4,3,2,,,,
4/8h[4:1],,,,,,3,2,1,,,,
3/7h[8:3],,,,,,2,1,8,,
6,5,4,,,,
5,4,3h[8:1],,,,7,6,5h[8:1],,,,1,8,7h[8:1],,,,3,2,1h[8:1],,,,
5,4,3h[8:1],,,,7,6,5h[8:1],,,,1,8,7h[8:1],,,,3,2,1h[8:1],,,,
5p4q5[3:2],4,3h[8:1],,,,7,6,5,
{4},,,
{8}2,2,
{16}8b/7b,,,3b/4b,,,1b/2b,,,5b/6b,,,8b,,1b/7b,,
{48}2bv5v2[4:1]/6bv1v6[4:1],3,4,5,6,7,8,1,2,,,,
{16}6V42[8:1],,,,,,,,1,,8/2,,
{48}7bv4v7[4:1]/3bv8v3[4:1],6,5,4,3,2,1,8,7,,,,
{16}3V57[8:1],,,,,,,,8h[4:1],
{16},,,3,4,1,1,8h[1:0],5h[1:0],6h[1:0],6h[1:0],
{48}1,2,3h[48:7],,,,1,8,7h[48:7],,,,2q7[8:1],3,4h[48:7],,,,7p2[8:1],6,5,,,,
{16}2<7[8:1],,,,5w1[16:1],,,,,,
{16},,,5h[48:1]/1h[48:1],6h[48:1]/2h[48:1],7h[48:1]/3h[48:1],
{48}8bv5v8[4:1]/4bv1v4[4:1],1,2,3,4,5,6,7,8,,,,
{16}4V61[8:1],,,,,,,,7h[24:1]/3h[24:1],,6h[24:1]/2h[24:1],,
{48}1bv4v1[4:1]/5bv8v5[4:1],8,7,6,5,4,3,2,1,,,,
{16}5V38[8:1],,,,,,,,2h[8:1],,,,
{16}3,5,1,1,8h[1:0]/2h[1:0],8h[1:0]/2h[1:0],3h[1:0]/7h[1:0],3h[1:0]/7h[1:0],
{16}6<2[8:1],,2<6[8:1],,4,,3,,2,,1h[16:1],2h[16:1],,4h[16:1],3h[16:1],,6h[16:1],5h[16:1],,7h[16:1],8h[16:2],,,,
{48}7b/3bq1[32:4],6,5,4,3,2,1p3[32:4],8,7,,,,
{16}3>7[16:2],,,,,,,,8,,1/7,,
{48}2b/6bp8[32:4],3,4,5,6,7,8q6[32:4],1,2,,,,
{16}6<2[16:2],,3,,4w8[16:1],,,,
{16},,,,6,5,8,8,1h[1:0],4h[1:0],3h[1:0],3h[1:0],
{48}7,6,5h[48:7],,,,3,2,1h[48:7],,,,4-8[8:1],5,6h[48:7],,,,8-4[8:1],1,2,,,,
{16}4-7b[8:1],,,,1w5[16:1],,,,,,
{16},,,4h[48:1]/8h[48:1],3h[48:1]/7h[48:1],2h[48:1]/6h[48:1],
{48}1b/5bv3[8:1],8,7,6,5,4,3v5[8:1],2,1,,,,
{16}5V38[8:1],,,,,,,,2h[24:1]/6h[24:1],,3h[24:1]/7h[24:1],,
{48}8b/4bv6[8:1],1,2,3,4,5,6v4[8:1],7,8,,,,
{16}4V61[8:1],,7-4[32:3],,8v3[32:3],,7,,8,,,,
{16}6,4,8,8,1h[1:0]/7h[1:0],1h[1:0]/7h[1:0],6h[1:0]/2h[1:0],6h[1:0]/2h[1:0],
{16}3V17[8:1],,7V13[8:1],,,,6,,7,,8h[16:1],7h[16:1],,5h[16:1],6h[16:1],,3h[16:1],4h[16:1],,2h[16:1],1h[16:2],,,,
{16}4-1[32:3]/5,,,,7/4,,8-5[32:3],1/7,,2,8,,1-6[32:3],,2/8,,
{16}3-8[32:3]/1,,,,6/3,,7-4[32:3],8/6,,1,7,,8-5[32:3],,1/7,,
{16}2-7[32:3]/8,,,,5/2,,6-3[32:3],5/7,,8,6,,7-4[32:3],,8/6,,
{16}1-6[32:3]/7,,,,1/3,,,2,7,3,5,1,6,4,7,2,
{16}8v5[32:3],,,,3/8,,4v1[32:3],5/3,,6,4,,5v2[32:3],,6/4,,
{16}7v4[32:3]/5,,,,2/7,,3v8[32:3],2/4,,5,3,,4v1[32:3],,5/3,,
{16}6v3[32:3]/4,,,,1/6,,2v7[32:3],4/3,,4,2,,3v8[32:3],,4/2,,
{16}5v2[32:3]/3,,,,5/7,,,6,3,7,1,5,2,8,3,6,
{16}4<7[32:3],,,,4/3,,3,8,3-8V24[16:3],8-6-2b[32:4],3,,,,,,
{16}5<8[32:3],,,,5/4,,4,1,4-1V35[16:3],1-7-3b[32:4],4,,,,,,
{16}3>8[32:3],,,,3/4,,4,7,4-7V53[16:3],7-1-5b[32:4],4,,,,,,
{16}7>2[32:3],,,,7/3,,4h[32:2],,8-5[32:3],3,8-3b[32:3],2,8-4[32:3]*-4[32:3],,,,
{16},,,,7,2,8,3,1-7-5<8[4:1],4,2>5-3-1b[4:1],,1-5[8:1]*-5[8:1],,,,
{16},,,,6,1,7,2,8-6-4<7[4:1],3,1>4-2-8b[4:1],,8-4[8:1]*-4[8:1],,,,
{16},,,,5,8,6,1,7-5-3<6[4:1],2,8>3-1-7b[4:1],,7-3[8:1]*-3[8:1],,,,,,,,
{16}1,8,1,8,
{32}2,3,4,5,6,7,8,1,2-6[32:3]/7,6,5,4,3,2,1,8,7w3[4:5]/2,
