&title=SON OF SUN
&artist=Sampling Master Mega
&first=-0.07
&des=Tttingsama vs OilSugar
&des_5=Tttingsama vs OilSugar
&lv_5=14
&inote_5=(200){4},{1},,,,,{4},,,2h[4:1],
{8},4,5,6,{4}7,
3h[2:1],{8}5,5h[8:2],{4},4,
6h[2:1],{8}4,4h[8:3],,5,{4}5,
2h[4:1],{8}4,5h[4:1]/3h[8:1],,3,6h[8:1]/4h[8:1],,
7h[4:1],,
{8},5,4,3,{4}2,
6h[2:1],{8}4,4h[8:2],{4},5,
7h[4:1],{8}5,4h[4:1]/6h[8:1],,6,3h[8:1]/5h[8:1],,
{32}1h[8:1]/8b,7,6,5,,,,,1h[8:1]/2b,3,4,5,,,,,1h[8:1]/8b,7,6,5,,,,,1h[8:1]/2b,3,4,5,,,,,
{8}28,2,17,7,82,8,{4}71,
{8}3h[4:1],4,5h[4:1],4,3h[4:1],4,{4}5,
{8}71,7,82,2,17,1,{4}28,
{8}6h[4:1],5,4h[4:1],5,6h[4:1],5,{4}4,
{8}2h[4:1],1,8h[4:1],1,2h[4:1],1,8h[4:1],1,
5h[4:1],6,8h[4:1],7,5h[4:1],6,8,,
4h[4:1],2,1h[4:1],3,4h[4:1],2,1,3,
{32}1b/8b,7,6,5,,,,,1b/7b,6,5,4,,,,,1b/6b,5,4,3,,,,,{4}1b/8b,
{8}2-5[8:1],1-5[8:1],2,1,3-8[8:1],4-7[8:1],3,4,
1^4[8:1],8-4[8:1],1,8,1-5[8:1],8^5[8:1],1,8,
{8}3-8[8:1],4-8[8:1],3,4,2-5[8:1],1-6[8:1],2,1,
4^1[8:1],5-1[8:1],4,5,4-8[8:1],5,4,7,
8-4[8:1],1^4[8:1],8,1,5^8[8:1],4-8[8:1],5,4,
6-2[8:1],7^2[8:1],6,7,3^6[8:1],2-6[8:1],3,2,
8-4[8:1],1-5[8:1],8,1,7-4[8:1],2-5[8:1],7,2,
{32}6b,7,8,1,,,,,1b,82,37,46,,,,,2b,3,4,5,6,7,8,1,{4}2b/6h[4:1],
{8}4,7,45,5,{4}3-8[8:1]/5,5,
{8}53,2,54,4,{4}6-1[8:1]/4,4,
{8}46,7,67,8,{4}7/5^2[8:1],7,
{8}1^6[8:1],8,1,5,4,3,{4}2,
{8}15,1,1-4[8:1]/5,1,{4}1/5-8[8:1],5,
{8}73,7,7-2[8:1]/3,7,{4}7/3-6[8:1],3,
{8}15,1,1^6[8:1]/5,1,{4}1/5-2[8:1],5,
{1}7^4[2:1]/8^3[2:1],
{4}2^5[4:1],{8}8,8-4[8:1],,,{4}3,
{4}2^5[4:1],{8}8,8-4[8:1],,,{4}3,
{4}2^5[4:1],{8}8,8-4[8:1],,,{4}3,
7-4[8:1],1-6[8:1],3-8[8:1],5-2[8:1],
{4}7^4[4:1],{8}1,1-5[8:1],,,{4}6,
{4}7^4[4:1],{8}1,1-5[8:1],,,{4}6,
{4}7^4[4:1],{8}1,1-5[8:1],,,{4}6,
{16}2b,7,1,8,2b,7,1,8,2b,7,1,8,2b,7,1,8,
{4}2-7[8:1],25,{8}56,4,56,7h[8:1],
,8,87,1,12,4,{4}3/4^7[8:1],
{4}3^8[8:1],34,{8}43,5,43,2h[8:1],
,1,12,8,87,5,{4}6/5^2[8:1],
5/6^1[8:1],56,{8}23,4,56,7,
8,67,5,34,2,18,78,67,
{4}6-2[8:1],6^3[4:3]/2^7[8:1],{8},,,,,,,,2b/6b,
1b/5b,{4}3b/7b,
{1}3^8[2:3],
{8},,,,,,,6,
{4}6-1[8:1],6^3[2:3],,,,,,,{1}2^5[2:3],
{8},,,,,,,7
,
{4}7-3[2:1],6,1,5,
{16}1b,8,1,8,1,8,1,8,{32}1,2,3,4,5,6,7,8,1,2,3,4,5,6,7,8,
{8}6-3[8:1]/1b,6,6/2-7[8:1],2,{4}2^5[8:1]/6^1[8:1],2/6,
{8}7-4[8:1]/3b,7,7/3-8[8:1],3,{4}3^6[8:1]/7^2[8:1],3/7,
{8}2^5[8:1]/6b,2,2/6-1[8:1],6,{4}2^7[8:1]/6^3[8:1],2/6,
{8}7-4[8:1]/2b,7,2-5[8:1]/7,2,6-1[8:1],6,{4}3/6,
{8}3^6[8:1],3,2-6[8:1],2,1^6[8:1],1,2-6[8:1],2,
3^6[8:1],3,2-6[8:1],2,1^6[8:1],1,{4}3-8[8:1],
{8}6-1[8:1]/3b,5,3-8[8:1]/6,4,6-1[8:1]/3,5,36,4,
{16}3b,4,5,6,3,4,5,6,4h[32:1],5h[32:1],4h[32:1],5h[32:1],{4}4b,
{8}2h[4:1],8,6h[4:1],8,2h[4:1],8,6h[4:1],8,
{4}2^5[2:1],6,7,8,
{8}7h[4:1],5,3h[4:1],5,7h[4:1],5,3,5,
{1}5^2[2:1]/6^1[2:1],
{8}2h[4:1],4,6h[4:1],8,3h[4:1],5,7,1,
{16}3,4,3,4,{8}3,45,{16}6,5,6,5,{8}6,54,
{16}3,4,5,6,7,8,1,2,3/7,6,5,4,3,2,1,8,
{32}1b/7b,26,35,4h[4:1],,,,,,,,,3b/7b,26,15,48,,,,,,,,,{4}2b/6b,
{8}
3/5,2b/7b,6/4,2b/7b,3/5,2b/7b,6/4,2b/7b,
3/5,8b/7b,6/4,1b/2b,3/5,8b/7b,3h[8:1]/6h[8:1],,
5/4,2b/7b,8/1,3b/6b,5/4,2b/7b,8/1,3b/6b,
8/1,3b/7b,1h[8:1]/5h[8:1],,1/8,6b/2b,8h[8:1]/4h[8:1],,
3/4,8b/1b,5/6,8b/1b,2/4,8b/1b,5/7,8b/1b,
5/7,2b/4b,8/6,1b/3b,7/4,2b/5b,8h[8:1]/3h[8:1],,
14,6b/7b,23,5b/8b,14,6b/7b,23,4b/8b,
{4}2b/6b,{8}37,26,{24}1b/5b,2b/6b,3b/7b,4b/8b,5b/1b,2^7[16:29]/6^3[16:29],{4}Chf[512:1]/E1h[512:1]/E2h[512:1]/E3h[512:1]/E4h[512:1]/E5h[512:1]/E6h[512:1]/E7h[512:1]/E8h[512:1]/B1h[512:1]/B2h[512:1]/B3h[512:1]/B4h[512:1]/B5h[512:1]/B6h[512:1]/B7h[512:1]/B8h[512:1]/D1h[512:1]/D2h[512:1]/D3h[512:1]/D4h[512:1]/D5h[512:1]/D6h[512:1]/D7h[512:1]/D8h[512:1],,,,
E
