&title=Distortion!!
&artist=作詞・作曲:谷口鮪(KANA-BOON)編曲:三井律郎
&first=0
&des=monimoni
&freemsg=
&wholebpm=176
&des_1=
&des_2=
&des_3=
&des_4=monimoni
&des_5=monimoni
&lv_5=11+ || .9
&clock_count=4
&inote_1=
&inote_2=
&inote_3=
&inote_4=
&inote_5=(176)
{1},
{4}4,4,4-1[8:1],4/5,
{8}8,7h[4:1],,1,2h[4:1],,6,5h[4:1],
{8},3,4h[4:1],,5^8[8:1],,35,,
{8}1,2h[4:1],,8,7h[4:1],,3,4h[4:1],
{8},5,4,4,6,3,5,4,
{8}6,5-8[8:1],,3,4>8[32:16],,6,5,,5,4,,45,45,,,
{4}46,4,47,4,46,4,45,4,
{4}4-8[8:1]/6,6,4-2[8:1]/7,7,6qq8[16:12]/4,3,3,2,
{8}2h[2:1],,,8,8,,,1/7h[4:1],,1,7,,78,,18,,
{8}7h[2:1],,,1,1,,,8/2h[4:1],,8,2,8,12,,18,,
{4}3h[4:1]/5,5,5/2h[4:1],5,5/3h[4:1],5,5/4h[4:1],5,
{4}5-1[8:1]/3h[4:1],5,5-7[8:1]/2h[4:1],5,5h[4:1]/3pp1[16:12],3,6,7,
{8}7h[2:1],,,1,1,,,17,,8,1,,17,,82,,
{8}2h[2:1],,,8,8,,1-4[8:1],8,1,,6-3[8:1],,2-7[8:1],,25,,
{8}6,6h[8:1],4,4h[8:1],5,5-1[8:1],3,53,,2,8,17,,17,,7,
{8}2>7[2:1],,,7,7<2[2:1],,,8,8-4[4:1],,,1,1,,,,
{8}3,3h[8:1],5,5h[8:1],4,4-8[8:1],6,64,,7,1,8,2,7,1<5[4:1],,5>1[4:1],,1<5[4:1],,5>1[4:1],,1p5[4:1],,5p1[4:1],,1^6[4:1],,6^3[4:1],,3,,1,21,,45,45,,78,78,
{8},{16}1,6,1,,{8}7h[8:1],8h[8:1],6h[8:1],1h[8:1],5h[8:1],
{8}2^7[8:1],,5-1[8:1]/2,,5,,3V57[4:1],,3/7V13[4:1],,1,,6h[8:1],4h[4:1],,5-1[4:1],
{8},,3,3,,8h[4:1]/2,,1,1-3[8:1],,7^5[8:1]/1-5[8:1],,1/7-3[8:1],,7,,
{8}4^1[8:1],,4/6-8[8:1],,6,,2p5[4:1],,5p8[4:1],,6,,7,7,1,1,
{8}8V62[16:3],,8/1-4[8:1],,1-6[8:1],,1/5pp4[2:1],,4/5,,,3,3,3b,4b,,
{8}7^2[8:1],,7/4-8[8:1],,4,,6V42[4:1],,6/2V86[4:1],,8,,3h[8:1],5h[4:1],,4-8[4:1],
{8},,6,6,,1h[4:1]/7,,8,8-6[8:1],,8-4[8:1]/1-3[8:1],,1p5[8:1]/8^5[8:1],,18,,4b>7[2:1],,,7,6,,5,,5<2[2:1]/4,,,2,3,,4h[4:1],,
{8}8,4,8,8,8-2[8:1]/4,,8-6[8:1]/4,,8p4[8:1]/3^8[8:1],,83,,26,,1b/5h[4:1],,
{8}1,5,1,1,1-7[8:1]/5,,1-3[8:1]/5,,1q5[8:1]/6^1[8:1],,16,,37,,8h[4:1]/4b,,
{8}3-1[8:1],8-4[8:1],3,8,2^5[8:1],,6-1[8:1]/2,,3-7[8:1]/6^4[8:1],,36,,1/5,,1h[4:1]/5b,,
{8}6-8[8:1],1-5[8:1],6,1,7^4[8:1],,3-8[8:1]/7,,6-2[8:1]/3^5[8:1],,36,,48,,8h[4:1]/4b,,
{4}3-8[8:1],3qq3[16:4]/7,3/7-4[8:1],7qq7[4:1],72,1-5[8:1],18,3b/7b,
{4}6-1[8:1],6pp6[4:1]/2,6/2-5[8:1],2pp2[4:1],27,8-4[8:1],18,2b/6b,
{8}3,4,3-8[8:1],4,3,,5,4,5-1[8:1],4,5pp5[1:1]*pp5[1:1],,,,4,4,
{8}3,3,2,2,1,1,17,17,1^4[8:1]/7,,{16}4qq8[16:12],5,6,7,8,,,,,,,,
{16}7,,,5,,,6,,,4pp4[1:1]*qq4[1:1]/6,,,,,,,,,,,,,,,,,,,,,,,
E
