&title=自傷無色
&artist=ササノマリイ
&first=0
&des=KuSA
&wholebpm=120
&lv_5=12
&inote_5=(120)
{1}
,,,[,
{8}
,,,,,{24},4,5,3,,3,,3,,{8}
2>5[8:1]/4,,1,,{12}7<4[8:1]/5,,8,8,,,2/4>2[12:1],,
5,5<7[12:1],,3,3p4[4:1],,,8,,,7h[4:1],,,6h[4:1],,,
5h[4:1],,,4h[4:1],,,3q7[4:1],,,2,,,1-4[8:1],,,,,,
7/5-1[8:1],,,6,,,2/4-8[8:1],,3,3,,,5>3[12:1],,8,8<6[12:1],,2,2q1[4:1],,,5,,,
4h[4:1],,,2h[4:1],,,8h[4:1],,,6>8[4:2],,,3>8[4:1]*q7[4:1],,,,,,,,,4/5,,3,
2/4,,,4/5,,6,5/7,,,3/4,,5,4-1[8:1]/6,,,4/5-8[8:1],,7,5,,,1/7,,6,
7/5,,,4/5,,3,2/4,,,5/6,,4,3/5<8[8:1],,,5/4-1[8:1],,2,4,,,2/8,,3,
2h[4:1]/4,,5,5,,6,7h[4:1]/5,,4,4,,3,2-5[8:1]/5,,,6-1[8:1],,8,6,,,2/7,,,
5>3[8:1]/3v6[8:1],,,,,,6v3[8:1]/4<6[8:1],,,,,,7-2[8:1]/3-6[8:1],,,3/7,,,
1-5[8:1]/5,,,,,,
2>5[64:23],,,4<7[64:23],,,6<1[64:23],,,8>3[64:23],,,2>5[64:23],,,
4<6[64:15],,,6,,,8-5[8:1],,,8-3[8:1],,,8-6[8:1],,,8-4[8:1],,,8-5[8:1],,,8,,,
1-4[8:1],,,1,,,3/6,,,7<4[64:23],,,5>2[64:23],,,3>8[64:23],,,1<6[64:23],,,
7<4[64:23],,,5>3[64:15],,,3,,,1-4[8:1],,,1-5[8:1],,,1-7[8:1],,,1-6[8:1],,,
1-3[8:1],,,1-4[8:1],,,1-5[8:1],,,1,,,3b/7b,,,
5-1[12:1],,,7/5<8[12:1],,,5>2[12:1]/2,,4,8-4[12:1]/5,,,8/6-1[12:1],,3,
2>5[12:1]/6,,7,8-3[12:1]/2,,5,5>8[4:1],,,6,,,4<1[4:1],,,3,,,2,,
1>4[12:1],7<4[12:1],,1,7,,2,8-4[8:1],,,8/7,,,3/1-6[12:1],,2,1,,,
7/8-4[12:1],,6,8,,,
5-8[12:1],,4,5-2[12:1],,7,5-1[12:1],,,3/5,,,8-6[12:1]/2-4[12:1],,1,2/8,,,
5-1[12:1],,,6/5,,8<5[12:1],2>5[12:1],,8,2,,7,1w5[8:1],,,1,,,4-8[12:1],,,2/4>1[12:1],,,4<7[12:1]/7,,5,1-5[12:1]/4,,,1/3-8[12:1],,6,
7<4[12:1]/3,,2,1-6[12:1]/7,,4,4V61[4:1],,,3,,,5V38[4:1],,6,6,,,7,,
8<5[12:1],2>5[12:1],,8,2,,7,8-4[12:1]/1-5[12:1],,,1/8,,,
7/5-1[12:1],,4,5,,,2/4-1[12:1],,6,4,,,8<5[12:1],,1,8>3[12:1],,6,
8-4[12:1],,3,1>4[12:1]*<6[12:1],,,1-5[12:1],,,1,,
7<5[12:1],8-4[12:1],,7,8,,5<7[12:1],4>1[12:1],,5,4-8[12:1],,,8w4[8:1],,,
,,,2-5[8:1],,5,5,,,3-8[8:1],,7,7,,,2q6[8:1],,6,6>3[8:1],,8,8,,1,2/1,,,
7-4[8:1],,4,4,,,6-1[8:1],,2,2,,,8p4[8:1],,4,4<7[8:1],,3,3,,2,1/8,,,
3-5[12:1],,7,7-4[12:1],,2,2-5[12:1],,6,7,7,4,6-2[12:1],,3,1,1,8,2,6,4,
5pp2[8:3],,,2,,,4qq7[8:3],,,7,,,5pp2[8:3],,,2,,,4q8[8:3]*-1[8:3],,,,,,,,,
{1}3h[1:3]/6h[1:3],,,{12},,,3-6[4:1]/6>3[4:1],,,,,,,,,
2/5,3,4,4/5-7[8:1],,,2/5,3,4,4/8,,,7/4,8,1,2/6,3,4,2/5,1,8,3/7,6,5,
2<7[8:1],2,6<2[6:1],6,5,5,4h[4:1],,2,2h[4:1],,8,8h[6:1],,6,5,4,3,
1-5[8:1]/2v5[8:1],1/2,1/2,1/2,,,
4bq5[4:1],,,2/4>1[12:1],,,4<7[8:1],,5,1qq7[8:1]/4,,,1/3<5[12:1],,
2,7p3[12:1]/3,,8,7/1-5[12:1],,4,4<1[4:1],,,2,,,4<1[4:1],,2,2,,,
4-1[12:1],,6,4pp6[12:1],,2,4-1[12:1],,5,4pp6[12:1],,2,2,,,
7/8>3[12:1],,6,8-4[8:1],,,1<6[12:1]/8,,3,1-5[8:1],,,1/6,,
7<5[12:1],4>2[12:1],,7,4pp7[4:1],,1,1,,,8w4[12:1],,,8,,2>4[12:1],1-5[12:1],,2,1,,
4>1[12:1],5<8[12:1],,4,5-1[12:1],,,1w5[8:1],,,1b,,,
2h[6:1]/4h[4:1],,,,,,7h[4:1]/5h[6:1],,,,,,
3h[6:1]/4h[6:1],,,5h[6:1]/4h[6:1],,,5>3[8:1]/6,,,,,,6,5,4,3,,,6,5,4,3,,,6,5,4,3v6[4:1],,,,,,,,,3,4,5,6,,,3,4,5,6h[4:1],,,7h[4:1],,,8h[4:1],,,1h[4:1],,,2,,,
3,4-1[2:1],5-8[12:5],6,
