&title=Dazzle hop
&artist=Sampling Masters MEGA
&first=0
&des=红林
&lv_5=13+
&inote_5=(220.000)
{1},
{8}7,8,,5,4,,1/2V46[8:4],,
{8}6,6,,8,8,,1,,
{8}2,1,,4,5,,8/7V53[8:4],,
{8}3,3,,1,1,,8,,
{8}7,8,,5,4,,1/2V46[8:4],,
{8}6,6,,8,8,,1,,
{8}2,1,,4,5,,8/7<8[8:6],,
{8}3s7[8:4],,,,,,,,
{8}6h[8:2]/1,,1,5h[8:2]/2,,2,6/1p4[8:2],,
{8}4>7[8:3],,8,8,,5,5,,6h[8:1],,
{8}3h[8:2]/8,,8,4h[8:2]/7,,7,3/8q5[8:2],,
{8}5<2[8:3],,1,1,,4,4,,3h[8:1],,
{8}6h[8:2]/1,,1,5h[8:2]/2,,2,6/1p4[8:2],,
{8}4>7[8:3],,8,8,,5,5,,6h[8:1],,
{8}3h[8:2]/8,,8h,7h[8:2]/4h,,4h,3h/1-6[16:3],,
{8}1b/4>1[16:3],,4,8b<5[16:3],,8,4bw8[8:5],,
{8},,,,,,,,
{8}6,,6,,{16}4,,4,,5,4,5,4,
{8}6h[8:1],5h[8:2],,8,4h[8:2],,5,,
{8}3h[8:1],4h[8:2],,2,6h[8:2],,5,,
{8}4h[8:1],5h[8:2],,1,6h[8:2],,4,5,
{8}3h[8:1],6h[8:2],,8,5h[8:2],,4,,
{8}3h[8:1],4h[8:2],,1,5h[8:2],,4,,
{8}6h[8:1],5h[8:2],,7,3h[8:2],,4,,
{8}7/5,5h[8:1],,8,3/1,3h[8:1],,4,
{8}6/2,2/6h[8:1],,8,{12}2,4,3,7,5,6,
{8}2-5[16:3],2,8,7,7h[8:1],4,4h[8:1],
{8}6-1[16:3],6,4,3,3h[8:1],8,8h[8:1],
{8}1-5[16:3],1,7,6,6h[8:1],3,3h[8:1],
{8}4,1/2,5,8/3,6,7/4,5,
{8}7-4[16:3],7,1,2,2h[8:1],5,5h[8:1],
{8}3-8[16:3],3,5,6,6h[8:1],1,1h[8:1],
{8}8-4[16:3],8,2,3,3h[8:1],6,6h[8:1],
{8}5,8/3,,1/6,,3/4,,6/5,
{8}7<4[16:3],8,1,2,2h[8:1],8,8h[8:1],
{8}4>1[16:3],5,6,7,7h[8:1],1,1h[8:1],
{8}8-4[16:3],8,2,3,3h[8:1],6,6h[8:1],
{8}5,8/7,4,1/6,3,2/5,4,
{8}2>5[16:3],1,8,7,7h[8:1],1,1h[8:1],
{8}5<8[16:3],4,3,2,2h[8:1],8,8h[8:1],
{8}1-5[16:3],1,7,6,6h[8:1],4b>1[16:3],,
{8},8b<5[16:3],,,,,,
{8}2,2/1>4[16:3],,8h[8:1],,,6,6/5<8[16:3],,4h[8:1],,,1/3,,7/5,,
{8}3,4,1,8,5,6,8,7,4,5,2,1,3,4,
{8}1,8/1<6[16:3],,2h[8:1],,,5,4/5>2[16:3],,6h[8:1],,,1/6,,8/3,,
{8}7,5,1,2,4,8,6,5,1,3,{12}7,5,6,2,4,3,
{8}7,8/7-2[16:3],,6h[8:1],,,3,4/3-6[16:3],,2h[8:1],,,1/5,,7/3,,
{8}5,8,6,4,1,2,5,3,7,8,4,2,1,5,
{8}8,8/1-5[16:3],,2h[8:1],,,1,1/8-4[16:3],,7h[8:1],,,6/2,,8/4,,
{8}1,5,3,1,4,6,8,5,3,8,{12}2,4,3,7,5,6,
{8}1-5[16:3],,1,6-1[16:3],,6,2-6[16:3],,
{8}2,5<8[16:3],,5,2h[8:1],,1/2,,
{8}8-4[16:3],,8,3-8[16:3],,3,7-3[16:3],,
{8}7,4>1[16:3],,4,7,7,8/7,,
{8}1<6[16:3],,1,5-1[16:3],,5,2>5[16:3],,
{8}2,6-2[16:3],,6,1h[8:1],,1/8,,
{8}8>3[16:3],,8,4-8[16:3],,4,7<4[16:3],,
{8}7,3h[16:4],,4,{12}1,2,3,8,7,6,
{8}2,2/1,,5,5/4,,8/7s3[8:4],,
{8}3,3,,1,1,,8,,
{8}7,7/8,,4,4/5,,1/2z6[8:4],,
{8}6,6,,8,8,,1,,
{8}2,2/1,,5,5/4,,8/7s3[8:4],,
{8}3,3,,1,1,,6,,
(275)
{4}8/1,8/1,8/1,7/2,7/2,7/2,6/3,6/3,6/3,4/5,
(220.000)
{4}4bz8[8:4]/5bs1[8:4],,,,
{8}3h[8:2]/8,,8,4h[8:2]/7,,7,3/1<6[8:2],,
{8}6V42[8:3],,2,2V46[8:3],,1,1,,3h[8:1],,
{8}6h[8:2]/1,,1,5h[8:2]/2,,2,6/8>3[8:2],,
{8}3V57[8:3],,7,7V53[8:3],,8,8,,6h[8:1],,
{8}3h[8:2]/8,,8,4h[8:2]/7,,7,3/1<6[8:2],,
{8}6V42[8:3],,2,2V46[8:3],,1,1,,3h[8:1],,
{8}3h[8:2]/8,,8h,7h[8:2]/4h,,4h,2h/1-6[16:3],,
{8}1b/4>1[16:3],,4,8b<5[16:3],,8,3b-8[16:3],,
{8}3b/5<8[16:3],,5,1b>4[16:3],,1,5b,,
{8}7h[8:2]/1,,1,5h[8:2]/3,,3,6/8>4[8:2],,
{8}4V26[8:3],,6,6V41[8:3],,8,8,,7h[8:1],,
{8}2h[8:2]/8,,8,4h[8:2]/6,,6,3/1<5[8:2],,
{8}5V73[8:3],,3,3V58[8:3],,1,1,,2h[8:1],,
{8}7h[8:2]/1,,1,5h[8:2]/3,,3,6/8>4[8:2],,
{8}4V26[8:3],,6,6V41[8:3],,8,8,,7h[8:1],,
{8}6h[8:2]/1,,1h,2h[8:2]/5h,,5h,6h/8-3[16:3],,
{8}8b/5<8[16:3],,5,1b>4[16:3],,1,5bw1[8:5]*-1[8:5],,
{8},,,,,,,,
{8}3,,3,,{16}5,,5,,4,5,4,5,
{8}7-5[8:1],7,1,3-8[8:1],3,4,4,
{8}5-7[8:1],5,2,1-4[8:1],1,8,8,
{8}6-4[8:1],6,1,3,3,6,6,
{8}5,8/7,4,1/6,3,2/5,4,
{8}2-4[8:1],2,8,6-1[8:1],6,5,5,
{8}4-2[8:1],4,7,8-5[8:1],8,1,1,
{8}3-5[8:1],3,8,6-1[8:1],6,5,5,
{8}4,1/3,,8/6,,6/5,,3/4,
{8}2>4[8:1],1,8,6-1[8:1],6,5,4,
{8}3>1[8:1],5,6,7-4[8:1],7,8,1,
{8}2>4[8:1],8,7,5,5,3,3,
{8}4,1/2,5,8/3,6,7/4,5,
{8}7<5[8:1],8,1,3-8[8:1],3,4,5,
{8}6<8[8:1],4,3,2-5[8:1],2,1,8,
{8}7<5[8:1],1,2,4,4,6,5bV38[8:4]*V72[8:4],
{8},,,,,,,,
{8}2-4[8:1],1-6[8:1],2,1,5,5,7,
{8}4,5-7[8:1],1-4[8:1],5,1,8,8,
{8}3-5[8:1],6-1[8:1],3,6,4,4,7h[8:1],
{8}4,1/2,5,8/3,6,7/4,5,
{8}8b<5[16:3],,8,4b>1[16:3],,4,7b-4[16:3],,
{8}7b/1>4[16:3],,1,5b<8[16:3],,5,1b,,
(275)
{4}8/1,8/1,7/2,6/3,6/3,
(220)
{12}5/4,,,,7/8,,7/8,,,,1/2,,
{8}2-4[8:1],1-6[8:1],2,1,5,5,{16}7,8,
{8}7-3[8:1],7,1-5[8:1],1,8-4[8:1],8,2,1b,,
&inote_6=(146.666)
{12},,,,,,,,
(146.667)
{12}8h[12:1],7,,5h[12:1],4,,1/2V46[24:6],,6,6V42[24:6],,8,8,,7,,
{12}1h[12:1],2,,4h[12:1],5,,8/7V53[24:6],,3,3V57[24:6],,1,1,,2,,
{12}8h[12:1],7,,5h[12:1],4,,1/2V46[24:6],,6,6V42[24:6],,8,8,,7,,
{12}1h[12:1],2,,4h[12:1],5,,8/7V53[24:8],,2v8[24:4],,,,,,{24}4,,4,,
{12}1v4[24:3],,7,1v6[24:3],,8,1,,8V62[24:6],,2,2-6[24:3],,4,4,,,
