&title=怪獣になりたい
&artist=Sakuzyo feat. 初音ミク
&first=0.05
&des=zAz feat. zAz
&lv_5=13+
&inote_5=(220)
{1},3<6[2:3],,3<6b[2:3],,3pp6[2:3],B4/B5/E5,3pp6b[2:3],B4/B5/E5,4bx>1[2:1],5bx<8b[2:1],{4}2hbx[1:1],{16}E5,E4,E3,E2,E1,E8,E7,E6,E5,E4,E3,E2,{8}E1f,,,C,{2},
{4}2h[8:1]/4h[8:1],5h[8:1]/6h[8:1],2h[8:1]/4h[8:1],5h[8:1]/6h[8:1],3h[8:1]/4h[8:1],5h[8:1]/6h[8:1],2<7[8:1]/4v7[8:1],2x/4x,6>4[8:1],6/3,3-5[8:1],3/7,7-4[8:1],3/7,3^5[8:1],3/6,
3hb[8:1]/4h[8:1],5h[8:1]/7h[8:1],3h[8:1]/4h[8:1],5h[8:1]/7h[8:1],2h[8:1]/4h[8:1],5h[8:1]/6h[8:1],3-8b[8:1]/4-7b[8:1],4x/3x,6bx>4b[8:1],6/3,3-5[8:1],3/7,7-4b[8:1],3/7,3^5[8:1],3/6x,{1}7bpp4[2:3],,2b-6-3-5b[1:1],{8},B7,B8,E1,{2},
{2}1xV35[2:1]/7,{4}5V71[2:1],C,{2}1V35[2:1],{4}5V71[2:1],C,{2}1V35[2:1],{4}5,6,,7/2z6[4:1],,,
{2}8xV64[2:1]/2,{4}4V28[2:1],C,{2}8V64[2:1],{4}4V28[2:1],C,{2}8,1-5b[8:1]/7-5b[8:1],2-5b[8:1]/8-5b[8:1],1-5b[8:1]/3-5b[8:1],2xV46b[2:1]/8x,{4}6V82b[2:1],C,{2}2xV46b[2:1],{4}6V82b[2:1],Cf,{2}2xV46b[2:1],{4}6,7,,1s5b[4:1],,,6h[1:1],5,4,3,2h[1:1],1,8,7>5[1:1],{1},{2}1b,{4}3,4,
5,{16}E7,B6,,,{4}4h[1:1],,,,{8}5,4,6,5,4,3,4h[1:1],5,{2}6,,{8},4,4,5,4/6,,,,3,3,4,4,6,5,4,3,2/5h[2:1],,E3,B3,{2}B4,6h[1:1],,{8},,5,6,
{4}4/8bx<5[2:1],3,2,1,1bx>4b[2:1]/5,6,7,8x,8bx<5[2:1]/4,3,2,1,{1}1bxw5b[2:3]/5,,Ch[1:1],,3bqq7b[2:1]/4bq7b[2:1],2hbx[4:3]/6hbx[4:3],{16}3bx,4bx,5bx,6bx,7bx,8bx,1bx,2bx,3bx,4bx,5bx,6bx,7bx,8bx,1bx,2bx,{1}3bxp8b[2:1]/6bxq1b[2:1],
{4}3hx[4:1]/8hx[4:1],,1x/6x-1b[8:1],2b,{4}3hx[4:1]/8hx[4:1],,1x/6x-1b[8:1],2b,{4}2hbx[1:1],{16}E5,E4,E3,E2,E1,E8,E7,E6,E5,E4,E3,E2,{8}E1f,,C/B6/B7/B2/B3,,{2},
{8}3h[8:3]/7bx,,,4h[8:3],,,5,,4bx/6h[8:3],,,5h[8:3],,,4,,2h[8:3]/4bx,,,3h[8:3],,,4,,{1}5/7qq5^6-8b[2:1],{6}1b/2b,3b/4b,5b/6b,7b/8b,1b/3b,4b/6b,1b/7b,2b/4b,4b/5b,6b/7b,1b/8b,2b/3b,{4}1b/5bpp1[2:3],,,5b,5hb[1:1],,,,,{16}4bx,6b,4b,6b,3bx,7b,3b,7b,2bx,8b,2b,8b,
{8}1hx[8:3],,,2h[8:3],,,3,,{16}2b/3b,1bV72[16:7]`4bV63[16:7],5b/8b,6b/7b,{4},,,6x-3[4:1]`7x-2[4:1],,,{8}1,1,5-3[8:1],5-7[8:1],5-1[8:1],,,,8-2-6-4[2:1],,{2},B3/E4,{4}4-1^8-5b[4:5],,6-2[8:1],,{4},,,{8}8,8,4-6[8:1],4-2[8:1],4-8[8:1],,,,1x,,3h[2:1]/7h[2:1],,,,,5,{4}2b/8b,3/6,1-6[8:1]/8-3[8:1],1b/8b,,3-8[2:1]/6V47b[4:1],,,,6b-8[8:1],5b-1[8:1],4b-2[8:1],7w3b[2:1],,,,8x,1b/7hb[1:1],,8x,6,4hb[1:1],,5,3,1bV35V71[2:1],,,,5V31b[8:1]*V71b[8:1],,3b/7b,,
{1}2bqq4pp6[4:3]/4,8V25q1b[4:3],4bV26q3[4:3],5v2^1V74b[4:3],3bqq6V48[4:3],7pp2p5b[4:3],1bV36qq5[4:3],8-2-7-3-6-4b[4:3],8b,3b/8b,1b/6b,B8/B1/B2/B3/B4/B5/E2/E3/E4/C,
{16}7b,5b,7b,5b,7b,5b,7b,5b,7b,5b,7b,5b,7b,,,,{4}B8/B1/B2/B3/E2/E4/Cf,,,1b/8b,{16}2b,4b,2b,4b,2b,4b,2b,4b,2b,4b,2b,4b,2b,,,,{1}B1/B8/B7/B6/E8/E6/Cf,
{4}4b/5b,{16}3b,4b,3b,4b,2b,5b,2b,5b,{4}1b,5b/4b,{16}6b,5b,6b,5b,7b,4b,7b,4b,{4}8b,8b/7b,{16}2b,1b,2b,1b,3b,8b,3b,8b,4b,7b,4b,7b,5b,6b,5b,6b,5b,6b,5b,6b,Cf/B4/B3/B2/B1/B8/B7/A4/A3/A2/A1/A8/A7,
