&title=绯色月下、狂咲ノ絶 (1st Anniversary Remix)
&artist=nayuta
&first=0
&des=Jinsokyo2
&lv_5=13+
&inote_5=(150)
{2},,2<3[2:7]*q5[2:1],,5-8[8:1],1-4[8:1],6>3[2:3],,7-2[8:1],5-1[8:1],
7>6[2:7]*p4[2:1],,4-1[8:1],8-5[8:1],3<6[2:3],,2-7[8:1],4-8[8:1],7q4[2:1]/1p4[2:1],,
6<3[2:1],3<8[2:1],8q5[2:1]*p3[2:1],,4-8[8:1],6qq4[8:1]/2pp4[8:1],2p5[2:1]/8q5[2:1],,
3>6[2:1],6>1[2:1],1p4[2:1]*q6[2:1],,5-1[8:1],4w8[8:1],{4}2b>4[8:1],7<5[8:1],1>3[8:1],
8<6[8:1],4>2[8:1],5<7[8:1],3>1[8:1],6<8[8:1],2>5[4:1],5q1[4:1],1q5[4:1],5<8[4:1],
8>4[4:1],4q6[4:1],,,7<5[8:1],2>4[8:1],8<6[8:1],1>3[8:1],5<7[8:1],4>2[8:1],6<8[8:1],
3>1[8:1],7<4[4:1],4p8[4:1],8p4[4:1],4>1[4:1],1<5[4:1],5p3[4:1],3>5[4:1],,
{1}4pp6[2:1]*qq2[2:1],5pp7[2:1]*qq3[2:1],8v6[2:1]/4v2[2:1],5v7[2:1]/1v3[2:1],
4>2[4:3]*>1[8:9]*>8[2:3]*>7[8:15]*>6[4:9]*>5[8:21],,,{4}4bw8[8:1],,8z4[8:1]/1s5[8:1],
,2b-4[8:1],6-4[8:1],1-5[8:1],7-3[8:1],2-8[8:1],6-8[8:1],3-7[8:1],5-1[8:1],2V48[4:1],
7-5[8:1],7-1[8:1]*-3[8:1],7-4[8:1],2-5[8:1],6V47[4:1]/2V83[4:1],,,7-5[8:1],3-5[8:1],
8-4[8:1],2-6[8:1],7-1[8:1],3-1[8:1],6-2[8:1],4-8[8:1],7V51[4:1],2-4[8:1],
2-8[8:1]*-6[8:1],2-5[8:1],7-4[8:1],1-7[8:1]*-3[8:1],1b-5[8:1],8b-4[8:1],3b-8[8:1],
6-1[8:1],4-7[8:1],5-2[8:1],1-5[8:1],8-4[8:1],2q6[8:1],7p3[8:1],8<5[8:1],1p5[8:1],
2<7[8:1],3p7[8:1],4>6[4:1],5q5[4:1],,,6-1[8:1],3-8[8:1],5-2[8:1],4-7[8:1],8-4[8:1],
1-5[8:1],7p3[8:1],2q6[8:1],1>4[8:1],8q4[8:1],7>2[8:1],6q2[8:1],5b<3[4:1],,
4s8[8:1]*z8[8:1],,{8}2-5[8:1],2-7[8:1],,,3-6[8:1],3-8[8:1],,,7-5[8:1],5-3[8:1],
3-1[8:1],1-7[8:1]*-5[8:1],,,,,6-2[8:1],6-8[8:1],,,2-6[8:1],2-4[8:1],,,7-5[8:1],
5-1[8:1],1V35[4:1],3-7[8:1],,,,,7-4[8:1],7-2[8:1],,,6-3[8:1],6-1[8:1],,,2-4[8:1],
4-6[8:1],6-8[8:1],8-2[8:1]*-4[8:1],,,,,3-7[8:1],3-1[8:1],,,7-3[8:1],7-5[8:1],,,
1V73[4:1],,4-6[8:1],4-2[8:1],4-8[8:1],,,,1>4[8:1],4v1[8:1],,,8<5[8:1],5v8[8:1],,,
1>3[8:1],3<5[8:1],5<7[8:1],7>1[8:1]*-3[8:1],,,,,2p5[8:1],5>2[8:1],,,6p1[8:1],
1<6[8:1],,,2>5[8:1],5-2[8:1],2-7[8:1],7>2[8:1],6-2[8:1],,,,8<5[8:1],5v8[8:1],,,
1>4[8:1],4v1[8:1],,,8<6[8:1],6>4[8:1],4>2[8:1],2<8[8:1]*-6[8:1],,,,,7q4[8:1],
4<7[8:1],,,3q8[8:1],8>3[8:1],,,5-7[8:1],4-2[8:1],5s1[4:1],4-8[8:1],,,,,1>3[8:1],,
1<6[8:1],6>3[8:1],1-5[8:1],,,,6>4[8:1],,6<1[8:1],1>4[8:1],4<6[8:1]*-8[8:1],,{4},
7<4[8:1]/1>4[8:1],7V14[4:1]/1V74[4:1],,,4<8[8:1]*>8[8:1],4w8[4:1],,,8<6[8:1],
{8}8>3[8:1],3<6[8:1],8-4[8:1],,,,3<5[8:1],,3>8[8:1],8<5[8:1],5>3[8:1]*-1[8:1],,{4},
2>5[8:1]/8<5[8:1],2V85[4:1]/8V25[4:1],,,5>1[8:1]*<1[8:1],5w1[4:1],,,
{8}7-1[8:1]/3-5[8:1],1-5[8:1],,,2-6[8:1]*-4[8:1],4-8[8:1],,,6-3[8:1],,3V58[4:1],
1-4[8:1],,,,,4-8[8:1]/3-1[8:1],1-5[8:1],,,6-8[8:1]*-2[8:1],2-4[8:1],,,1V75[4:1],,
1-3[8:1],3-5[8:1]*-7[8:1],,,,,2-8[8:1]/6-4[8:1],8-4[8:1],,,7-3[8:1]*-5[8:1],5-1[8:1],
,,3-6[8:1],,6V41[4:1],8-5[8:1],,,,,6-3[8:1]/2-7[8:1],,,,1-3[8:1],5-7[8:1],1-5[8:1],
5-1[8:1],{4}1bw5[8:1],,7s3[8:1]/2z6[8:1],,1-7[8:1],1-3[8:1]/4-8[8:1],1-7[8:1],
1-3[8:1],1-7[8:1]/6-2[8:1],1-3[8:1],5-7[8:1]*-1[8:1],,{8}8-4[8:1]/2-4[8:1],4-6[8:1],,
,1-7[8:1]*-5[8:1],7-3[8:1],{4},4-8[8:1],4<7[8:1]*>1[8:1],,,8-2[8:1],
8-6[8:1]/5-1[8:1],8-2[8:1],8-6[8:1],8-2[8:1]/3-7[8:1],8-6[8:1],4-2[8:1]*-8[8:1],,
{8}1-5[8:1]/7-5[8:1],5-3[8:1],,,8-2[8:1]*-4[8:1],2-6[8:1],{4},5-1[8:1],
5<8[8:1]*>2[8:1],5b-1[8:1],2b-4[8:1],2b-8[8:1]/7b-3[8:1],2-5[8:1],6-3[8:1]/2-7[8:1],
6-8[8:1],6-4[8:1]/3-7[8:1],6-1[8:1],2-6[8:1]*-4[8:1],,{8}1-5[8:1]/5-7[8:1],5-3[8:1],,
,8-6[8:1]*-4[8:1],4-2[8:1],{4},5-1[8:1],5-2[8:1]/4-7[8:1],,7-5[8:1],
7-1[8:1]/2-6[8:1],7-4[8:1],3-6[8:1]/7-2[8:1],3-1[8:1],3-5[8:1]/6-2[8:1],3-8[8:1],
7-3[8:1]*-5[8:1],,{8}8-4[8:1]/4-2[8:1],4-6[8:1],,,1-3[8:1]*-5[8:1],5-7[8:1],{4},
{2}4b>6[4:1],5s1[8:1]*z1[8:1],7-3[8:1]*>6[2:7],2-6[8:1],5-8[8:1],4-1[8:1],7>2[2:3],,,
,2-6[8:1]*<3[2:7],7-3[8:1],4-1[8:1],5-8[8:1],2<7[2:3],,,,{4}6<8[4:1],8>2[4:1],
2>4[4:1],4<6[4:1],6<1[4:1],{8}1q5[4:1],2>4[8:1],{2},7qq1[2:3]*<2[2:1],,,,{4}3>1[4:1],
1<7[4:1],7<5[4:1],5>3[4:1],3>8[4:1],{8}8p4[4:1],7<5[8:1],{4},,2>6[4:1],6<2[4:1],
2>6[4:1],6qq2[4:3]*pp2[4:3],,,,,7b-3[4:1],3-1[4:1],1-5[4:1],5-7[4:1],7-3[4:1],
{8}3V16[4:1],2-5[8:1],,,,,7-4[8:1],3-8[8:1],,,6-1[8:1],2-5[8:1],,,8-3[8:1],3>8[8:1],
{4}8<3[4:1]*p3[4:1],,,1<6[4:1],6>3[4:1],3>8[4:1],8<5[4:1],5>1[4:1],{8}1pp5[4:1],
8<5[8:1],,,,,6-1[8:1],2-5[8:1],{4},8-4[8:1],8q1[4:3]/1>8[4:3],,,,,2-6[4:1],6-8[4:1],
8-4[4:1],4-2[4:1],2-6[4:1],{8}6V83[4:1],7-4[8:1],,,,,2-5[8:1],6-1[8:1],,,3-8[8:1],
7-4[8:1],,,1-6[8:1],6<1[8:1],{4}1>6[4:1]*q6[4:1],,,8>3[4:1],3<6[4:1],6<1[4:1],
1>4[4:1],4<8[4:1],{8}8qq4[4:1],1>4[8:1],,,,,2-7[8:1],6-3[8:1],,,1-5[8:1],5-1[8:1],
{4}1w5[8:3],,,7z3[8:1]/3s7[8:1],,2bv8[8:1],7v1[8:1],3v5[8:1],6v4[8:1],8v2[8:1],
5qq3[8:1],4pp6[8:1],7pp1[8:1],2qq8[8:1],4pp6[8:1],1pp3[8:1],8qq6[8:1],5pp7[8:1],
6qq4[8:1],1qq7[8:1]*v3[8:1],,7v1[8:1],2v8[8:1],6v4[8:1],3v5[8:1],1v7[8:1],
4pp6[8:1],5qq3[8:1],2qq8[8:1],7pp1[8:1],5v3[8:1],8v6[8:1],1v3[8:1],4v2[8:1],
3v5[8:1],8b-6[8:1]*-2[8:1],8b-4[8:1],{1}3bpp5[2:1]*qq1[2:1],7qq5[2:1]*pp1[2:1],
6v8[2:1]/2v4[2:1],7v5[2:1]/3v1[2:1],{4}4>5[4:7],3>5[2:3],2<5[4:5],1<5[1:1],8<5[4:3],
7<5[2:1],6>5[4:1],4>2[4:1]*>1[8:3]*>8[2:1]*>7[8:5]*>6[4:3]*>5[8:7],,,,,4bw8[8:1],,
1z5[8:1]/7s3[8:1],,8-6[8:1]/4-2[8:1],8-2[8:1],8-6[8:1]/1-5[8:1],1-3[8:1],
1-5[8:1]/4V68[8:1],1>4[8:1],7-3[8:1]/1<6[8:1],,{8}5<8[8:1]/4>1[8:1],1-5[8:1],,,
8<5[8:1]*>3[8:1],3-7[8:1],{4},4-1[8:1]*>1[8:1],4<7[8:1]*-7[8:1],4-8[8:1],,
1-3[8:1]/5-7[8:1],1-7[8:1],1-3[8:1]/8-4[8:1],8-6[8:1],8-4[8:1]/5V31[8:1],8<5[8:1],
2-6[8:1]/8>3[8:1],,{8}4>1[8:1]/5<8[8:1],8-4[8:1],,,1>4[8:1]*<6[8:1],6-2[8:1],{4},
5-8[8:1]*<8[8:1],5>2[8:1]*-2[8:1],5b-1[8:1],7b<4[8:1],7b>1[8:1]/2b>4[8:1],7p3[8:1],
7>2[8:1]/2>5[8:1],2-6[8:1],4pp5[8:1]*qq3[8:1],4-8[8:1],1p4[8:1]*q6[8:1],,
{8}6pp7[8:1]/3qq2[8:1],2>5[8:1],,,6v1[8:1]*p2[8:1],1<6[8:1],{4},3pp5[8:1]*qq1[8:1],
3<6[8:1]*>8[8:1],3-7[8:1],2>5[8:1],2<8[8:1]/7<5[8:1],2q6[8:1],2<7[8:1]/7<4[8:1],
7-3[8:1],5qq4[8:1]*pp6[8:1],5-1[8:1],8q5[8:1]*p3[8:1],,{8}3qq2[8:1]/6pp7[8:1],
7<4[8:1],,,3v8[8:1]*q7[8:1],8>3[8:1],,,{2}5b>6[2:1]*q6[2:1],,8-4[4:1],1-5[4:1],
6-2[4:1],3-7[4:1],5<8[4:1],4>1[4:1],7-4[4:1],2-5[4:1],6-8[4:1],3-1[4:1],7<3[4:1],
2>6[4:1],8z4[4:1],1s5[4:1],6q2[4:1],3p7[4:1],5V71[4:1],4V28[4:1],7V51[4:1],2V48[4:1],
6pp4[4:1],3qq5[4:1],7qq1[4:1],2pp8[4:1],5<8[8:1]*>2[8:1],4<7[8:1]*>1[8:1],
8-5[8:1]*-3[8:1],1-6[8:1]*-4[8:1],5<7[8:1]*-7[8:1],4>2[8:1]*-2[8:1],
5b-1[1:1]*w1[1:1],
E
