&title=海神寓拝
&artist=sasakure.UK
&first=0.332
&des=▷▢▢▷—◁▢▢◁
&des_5=▷▢▢▷—◁▢▢◁
&lv_5=13+
&inote_5=(100){4},{16},,,,4,3,{8}2h[8:3],8,7,
6h[8:3],1,2,3,4h[8:3],7,6,5-1[0.9##0.6],
3,2,8,7,6,5b/4h[4:1],,6,
7-4[0.9##0.3],4-1[0.9##0.3],1-6[0.9##0.3],7,,,2,3,
4,5/6h[4:1],,3,2-4[0.9##0.3],4-8[0.9##0.3],8-6[0.9##0.3],2,
,,8,7,6,4b/5h[4:1],,3,
2-5[0.9##0.3],5-8[0.9##0.3],8-3[0.9##0.3],2,,,7,6,
5,4/3h[4:1],,6,8-5[0.9##0.3],5-1[0.9##0.3],1-4[0.9##0.3],4<7[0.9##0.75]/8>3[0.9##0.75],
,,,,,8b/4h[4:1],,7,
6h[8:1],5h[8:1],4h[8:1],3>8[0.9##0.225],{16},7,6,5,{8}4q6[0.9##0.9],5,
6,{16}7,7h[16:11],,,,,,,,,,,4,5h,
6,5h,{8}4,{16}2,1h,8,1h,{8}2,5h[4:1],,2,
3h[8:1],4h[8:1],5h[8:1],6q2[0.9##0.225],{16},2,3,4,{8}5<3[0.9##1.2],4,
3,{16}2,2h[16:11],,,,,,,,,,,5,4h,
3,4h,{8}5,7h[8:1],8h[8:1],1,6b/2>5[0.9##0.3],,,{4}2/7p2[0.9##0.375],
{8}8,7/3<6[0.9##0.3],,,7p4[0.9##0.6]/3>8[0.9##0.3],8,
8,7/3q5[0.9##0.6],,,3/5<8[0.9##0.3],7,7,5p4[0.9##0.6]/4>8[0.9##0.375],
3,3,{4}4/5,{8},2>5[0.9##0.3],,5q1[0.9##0.3],
2,6,7,8<5[0.9##0.3],,5q2[0.9##0.3],8,3,
4,5h[4:1],,8,7-3[0.9##0.3],3-5[0.9##0.3],5-8[0.9##0.3],7,
1,2,{16}4b,4,7,7,2,2,{8}5b/1-5[0.9##0.3],{16}4,3,,8,
{8}1/8,{16}6,4,,2,{8}8-4[0.9##0.3],{16}5,6,,1,{8}8/1,{16}3,5,
,7,{8}2v5[0.9##0.3],{16}5,4,,8,{8}2/8,{16}6,4,,2,{8}7v4[0.9##0.3],
{16}4,5,,1,{8}7/1-3[0.9##0.3],{16}3,5,,7,{8}1-5[0.9##0.3],{16}5,4,,8,
{8}1-7[0.9##0.3],{16}6,4,,2,{8}1-5[0.9##0.3],{16}5,6,,2,{8}1,{16}4,6,
,1,8b,8,3,3,5b,5,2,2,{8}7b/1b,{16}4,4,{8}2b/8b,
{16}5,5,{8}7b/2b,{16}5,5,3b,3,7,7,{8}8b/2h[4:1]
,,6,
5-8[0.9##0.3],8-2[0.9##0.3],3-7[0.9##0.3],5,,,5h[8:1],7h[8:1],
1h[8:1],3h[4:1],,7,8-5[0.9##0.3],5>3[0.9##0.3],3>8[0.9##0.3],8,
,,3h[8:1],6h[8:1],2h[8:1],5h[4:1],,8,
1-3[0.9##0.3],3<6[0.9##0.3],6-8[0.9##0.3],1,,,5h[8:1],3h[8:1],
7,1b/5-1[0.9##0.75],{16},,,,,,,,,,,,,5s1[0.9##1.35]/1z5[0.9##1.35],
,,,,,,,,,,,,,,,,,,5,
6,{8}7h[8:3],,,{4}3h[4:1],
{8}6,4/6h[4:1],,1,2-6[0.9##0.6],3,5,6,
,8,7s3[0.9##0.9],6,4,3,{16},,,,,,,,4,
3,{8}2h[8:3],,,{4}6h[4:1],
{8}3,5/3h[4:1],,8,7p4[0.9##0.75],6,4,3,
,1,2<5[0.9##1.05],3,5,6,{16},,,,,,,,5b/2,
6b/3,{8}7b/4>1[0.9##0.3],,,{4}6<1[0.9##0.3]/4q6[0.9##0.6],
{8}5,4/6p4[0.9##0.6],,7,4>1[0.9##0.3]/6<1[0.9##0.3],2,2,6/4p4[0.9##0.525],
,3,8<4[0.9##0.525]/4>8[0.9##0.525],7,7,8-4[0.9##0.3]/4-8[0.9##0.3],{16},,,,,,,,3/7,
2/6,{8}1b/5<1[0.9##0.525],,,{4}5p5[0.9##0.525]/1>5[0.9##0.525],
{8}7,5/1p1[0.9##0.525],,,{4}5<1[0.9##0.525]/1>5[0.9##0.525],{8}4,5/1,
,,1-3[0.9##0.3]/5-7[0.9##0.3],3-5[0.9##0.3]/7-1[0.9##0.3],5/1-5[0.9##0.3],1/5-1[0.9##0.3],{16},,,,2,
2,3,3,8/3,7/2,{8}6b/1>5[0.9##0.3],{16}3,3,{8}3,1/6v1[0.9##0.3],{16}7,7,
{8}7,6/4p8[0.9##0.3],{16}3,3,{8}3,4/8<5[0.9##0.3],{16}6,6,{8}6,1>4[0.9##0.3]/8q4[0.9##0.3],
{16}4<1[0.9##0.6],4,{8}4,{4}1<1[0.9##1.05]/8<1[0.9##1.05],{2}5p1[0.9##0.375],
{16},,,,8/1,7/2,{8}3b/6v1[0.9##0.3],{16}7,7,3,3,{8}6b/2>5[0.9##0.3],{16}4,4,
8,8,{8}2b/7p3[0.9##0.3],{16}6,6,3,3,{8}7b/2q5[0.9##0.75],{16}1,1,5,5,{8}2b/6,
,,4-8[0.9##0.3]/3-1[0.9##0.3],8/1-5[0.9##0.3],6/5<4[0.9##0.6],4/3,{32},,,,,,,,5,
6,7,8,1z5[0.9##2.7],2v4[0.9##2.625],3,4,5,6,7,8,{8}1b/2b,,,,,,,,,,,,6h[8:3],
,,{4}5h[8:3],{8},4h[8:3],,,3h[8:3],
,,6h[8:3],2,1,3h[8:3],7,
8,6h[8:3],2,1,3h[8:3],7,8,{32}7h,6h,{16}5h[16:3],
{8}1,1,4h[4:1],8,8,5h[4:1],1,1,
4h[4:1],8,8,{16}6b/2-5[0.9##0.225],2,7,7,{8}1,2/5,{16}6,4,
{8}8,{16}3/7<4[0.9##0.225],7,2,2,{8}8,4/7,{16}3,5,2,1,7/1-5[0.9##0.225],7,
3,3,{8}5,1/8,{16}6,4,{8}7,{16}2/8z4[0.9##0.225],2,6,6,{8}4,
8/1,{16}3,2,5,6,3
,3,2,1,{8}8h[16:1],{16}2,2,1,8,
{8}7h[16:1],{16}6,6,7,8,{8}1h[16:1],{16}7,7,8,1,{8}2h[16:1],{16}3,3,
2,1,8,7,6,7,8,1,2,3,4,5,2,6,3,7,
4/8q5[0.9##0.675],8/4q1[0.9##0.525],3/7,3/7,2/6,5/1,{8}4b/8b,
E
