&title=VelVid
&artist=An
&first=0.02
&des=Reinhard
&lv_5=14
&inote_5=(191)
{1},,,,,,,,
{8}4,3,2x/5,4,3,4,2/5,3,4,5,{24}6,4,6,4,,,{8}7,5,4/6,3,5,6,4/7,5,6,5,4/7,6,5,4,{24}3,5,3,5,,,{8}2,4,3/5,6,4-1[4:1]/7,7,8,8,7,7,6<3[8:3],,2,3,4-1[4:1],4,5hx[8:1],,6hx[8:1],,5-8[4:1]/2,2,1,1,2,2,3>4[8:5],,{1},
{8}2-6[8:1],1,2,8-4[8:1],,1/8,2h[4:1],,5-7[8:1],3,5,1-5[8:1],8,1,7,6,4<7[8:1],3,2,1>4[8:1],8,7,6h[4:1],,3-5[8:1],7-4[8:1],3,7,2-6[8:1],8,2,,7-3[8:1],8,7,1-5[8:1],,1/8,7h[4:1],,4-2[8:1],6,4,8-4[8:1],1,8,2,3,5>2[8:1],6,7,8<5[8:1],1,2,3h[4:1],,{2}Ch[2:1],4b-1[8:1]*-7[8:1],
{8}8-3[8:1],2,8,1,8-5[8:1],6,8,7,8<5[8:1],3,2,1,8>3[8:1],5,6,7,8-4[8:1],2,8,1,8-4[8:1],6,8,7,8pp3[8:3],1,2,3pp6[8:3],{2}4,{8}1-6[8:1],7,1,8,1-4[8:1],3,1,2,1>4[8:1],6,7,8,1<6[8:1],4,3,2,1-5[8:1],7,1,8,1-5[8:1],3,1,2,1/6,2/7,3/8,4h[4:1],,5,{24}3,4,3,4,,,
{8}2>5[8:1]/5,,2,8-4[8:1],,8,1,,{24}2,1,2,1,,,{8}3>8[8:1],4,3/5-1[8:1],,4/5,,3/8,2/7,1-4[8:1]/6-3[8:1],,1/6,,{24}7,8,7,8,,,{8}6<1[8:1],5,4,3<6[8:1],2,1,8,,1/7<4[8:1],,7,1-5[8:1],,1,8,,7/8,7/8,1/6<1[8:1],5,4-8[8:1],,4/5,,1/6,2/7,3-6[8:1]/8-5[8:1],,3/8,,1/2,1/2,3>8[8:1],4,5,6>3[8:1],7,8,1w5[8:1],,
{1}1bqq2V46b[1:2],,{2},{8},E1,E2,E3,E4/B4,B6/E7,B8,B1,E2,E6,B5,B4,C,,,D2/D8,,,E3/E7,,,D4/D6,,,E5,,B3/B6,Ch[8:5],{4},,,{8}1xp8[2:1],8,,,,7,,6,,5,
{4}4h[4:1],5-7[8:1],5/3h[4:1],8-5[8:1],2h[4:1]/8,4-7[8:1],1h[4:1]/4,8,1/8h[4:1],{8}2,2,2/7h[4:1],2,{4}2,6h[4:1]/3-7[8:1],3,5h[4:1]/8>3[8:1],8,5h[4:1]/4,4-2[8:1],4/6h[4:1],1-4[8:1],7h[4:1]/1,5-2[8:1],5/8h[4:1],1,1h[4:1]/7,{8}6,6,2h[4:1]/6,6,{4}6,5<1v6[2:1]/3h[4:1],,4h[4:1],,
{8}5/7,4/6,3-5[8:1]/5-1[8:1],,3/5,,,7<4[8:1]/8,,7,1-4[8:1]*-6[8:1],,1-5[8:1],,,,2/4,3/5,4-6[8:1]/6-2[8:1],,4/6,,,3-6[8:1]/1,,3,7,,{16}7,8,6,1,5,2,4,3,{8}5,4/6,3-8[8:1]/7-3[8:1],,3/7,,,1/6<1[8:1],,6,2-5[8:1]*-6[8:1],,2,,7/8,1/6-1[8:1],2-5[8:1],6,2,,3/8-5[8:1],,8,4h[4:1],,6,3/7,,{16}2,1,3,8,4,7,5,6,
{8}4,3,2-4[8:1],,5h[4:1]/2,,,4,,3,4/2-4[8:1],,5h[4:1]/2,,B5,B4,5,3,2-4[8:1]/4,,5h[4:1]/2,,4,3,2>5[8:1],1,8,7,4h[8:1]/6h[16:3],,5h[16:3]/7h[8:1],,{8}6,6,5/7-5[8:1],,4h[4:1]/7,,,5,,6,5/7-5[8:1],,4h[4:1]/7,,B4,B5,4,6,5/7-5[8:1],,4h[4:1]/7,,5,6,7<4[8:1],8,1,2<7[8:1],,1,,,
{4}4hbx[8:1]/5hbx[8:1],4-1[8:1]*-7[8:1]/5,,{8},2/6<4[2:1],,,1h[2:1],,,,,5>7[2:1],,,2h[2:1],,,,,6>3[8:1]/3,,,2,1-5[8:1],8-4[8:1],1,8,3>8[4:1],,,7h[2:1],,{16}E7,E6,E5,,{8},6<1[4:1],,,2h[2:1],,{16}E3,E4,E5,,{8},6-3[8:1],,,2-7[8:1],,,,,5,4/6,4,3/5,3,3/4,6,5/6,8b,
{8}1<6[8:1],2,3,4>1[8:1],5,6,7<4[8:1],8,1-6[8:1],2-5[8:1],1,2,7-5[8:1],8-4[8:1],7,8,1>4[8:1],8,7,6<1[8:1],5,4,3<6[8:1],2,1-5[8:1],8-6[8:1],1-3[8:1],8-4[8:1],1,8,1,8,1/8>3[8:1],7,6,5<8[8:1],4,3,2>5[8:1],1,8-3[8:1],7-4[8:1],8,7,2-4[8:1],1-5[8:1],2,1,8<5[8:1],1,2,3>8[8:1],4,5,6>3[8:1],7,8h[2:1],,,2,2,,3b/7b,,
{8}5/6,3/4,{16}2,1,2,1,{8}2,3<6[8:1]/8,7,3,{16}7,8,7,,3,4,3,2,{8}3,1,2-5[8:1],6-1[8:1],2,6,{16}3,4,2,5,{8}1,7-3[8:1],8,7,1-5[8:1],8,1,6-1[8:1],4,6,3,2,1/8,6/7,{16}5,4,5,4,{8}5,3/6>3[8:1],2,6,{16}2,1,2,,6,5,6,7,{8}6,8,5-8[8:1],1-4[8:1],5,1,{16}6,5,4,3,2,1,8-4[8:1],7,{8}6,8,5-1[8:1],3,5,2-6[8:1],8,2,,1/2,3,5,{16}7,8,7,,{24}1,8,1,8,,,{8}2-5[8:1],7-4[8:1],2,7,{16}1,2,3,4,{8}5,6-1[8:1],5,6,4,3,{24}4,3,4,3,,,{16}6,5,6,7,{8}6,4,2-6[8:1],1-5[8:1],2,1,,7/8,1/6,2/5,
3V51[4:1]/4,,3,6V84[4:1],,6,2-6[8:1],,1/2,8,7,6,{24}7,8,7,8,,,{8}1,3,{16}5,4,5,4,6,3,6,3,7,2,7,2,8,3,7,2,6,1,5,1,{24}6,2,6,2,,,{16}7/3,8,1,2,3,4,5/1x,6/2x,
{1}7b<5-8b[2:3]/3b>1-4b[2:3],,{2},{8},2-6[8:1],1,2,8-4[8:1],1,8,3V52[4:1],,3/5,6,7,8<5[8:1],,3/8,2q6[8:1],,2/6,7<4[8:1],,7/1>4[8:1],,1/6,7p3[8:1],,3/7,2>5[8:1],,1/2,,E1,E8,E7,E6,E5,E4,Ch[4:1],,D1,D8,D7,D6,D5,D4,
{1}3x/8-4[2:3],{8}2h[8:1],,2,2,2,2,2,,{1}1-5[2:3]/8,{8}7h[8:1],,7,7,7,7,7,,{1}4/6-2[2:3],{8}3h[8:1],,3,3,3,3,3,,{4}3-7[2:3]/5,,,{8}2,2,,,,1,,8,,,
