&title=Shadow gate to love
&artist=Guilty Kiss
&first=0
&des=FANdoraxxx
&des_6=FANdoraxxx
&lv_6=13
&inote_6=(105){4},{16},,,,,,,,,,,,,5/1-5[8:1],
,7/3,,1/5,,,,4/8-4[8:1],,2/6,,4-7[0.5714##0.5714]*-1[0.5714##0.5714],,,8b,
,,,,,,6/4h,,5,,3,{8}4h[8:1],1h[8:1],
{16}3h[8:1],,,4,,3/5h,,8,,8,,7,{4}6-2[4:1],
{16}5/6h[16:3],,,,,6,,3/5h,,4,,6,{8}5h[8:1],8h[8:1],
{16}6h[8:1],,,5,,6/4h,,1,,1,,2,{4}3-7[2:1],
{16}3h[16:1],,,5,,1,,4-1[8:1],,,5,4,{4}6-2[2:1],
{16}6h[16:1],,,4,,8,,5-1[8:1],,,4,5,{4}7-3[2:1],
{16}7h[16:1],,,1,,5,,8-5[8:1],,,1,8,{4}2-6[2:1],
{16}2h[16:1],,,8,,4,,1-5[8:1],,,8,1,{4}6-3[8:1],
{8},1h[16:1],{16},1>4[8:1],,4<7[8:1],,,,,,,,,8h[16:1],
,,8<5[8:1],,5>2[8:1],,2,,,,,{4}8-4[8:1],
{16}8/5,,,5-2[8:1],,3>8[8:1],,5,,,,,{4}4-8[8:1],
{16}4/1,,,1-6[8:1],,7<4[8:1],,1-4[8:1],,,,,,,,,7h[16:3]/3>8[8:1],
,,4,,5,,6h[16:5]/7-4[8:1],,,,,,,{8}6,
{16}2h[16:3]/6<1[8:1],,,5,,4,,3h[16:5]/2-5[8:1],,,,,,,{8}3,
{16}7h[16:5],,,8,,2-5[8:1],,2h[16:5]/5-8[8:1],,,,,,,,,3h[16:5],
,,4,,6-1[8:1],,6h[16:5]/1-4[8:1],,,,,,,,,3h[16:3],
8-4[8:1],,5,,8,{8}1h[8:1],{16}5<8[8:1],,,2h[8:1],,,{8}3,
{16}4-7[8:1],,,6-1[8:1],,,{8}8-4[8:1],{16},,,,,,,,1/3>8[8:1],
,,4h[16:3],,,,,{2}4<7[8:1]/8-3[8:1],
{16}8/6<1[8:1],,,5h[16:3],,,,,{2}1-6[8:1]/5>2[8:1],
{16}2h[16:3],5-1[8:1],,8,,5,{8}4h[8:1],{16}8<5[8:1],,,3h[8:1],,,{8}2,
{16}1-6[8:1],,,7-4[8:1],,,{8}5-1b[8:1],{16},,,,,,,,2h[16:1]/5h[16:3],
,,3h[16:3],,,,,{4}5-8[8:1]/3-8[8:1],5/3,
{16}1-5[8:1],,,3/7,,,{8}2h[8:1],6-3[8:1],4-8b[8:1],6,4,
{16},,7-4[8:1],5h[8:1],,7,,8>3[8:1],,3>8[8:1],,5,,7,,,{8}6b,
{16}2-5[8:1],4h[8:1],,2,,1<6[8:1],,6<1[8:1],,4,,2,,,{8}3b,
{16}1,2>5[8:1],,5,,2<7[8:1],,3,,2,,1-5[8:1],,,{8}1,
8-3[8:1],6-1[8:1],8,6,5-1[8:1],7/3,5,
{16},,6<1[8:1],8h[8:1],,6,,5>2[8:1],,2>5[8:1],,8,,6,,,{8}7b,
{16}3-8[8:1],1h[8:1],,3,,4<7[8:1],,7<4[8:1],,1,,3,,,{8}2b,
{16}5,4,,7-4[8:1],,5-2[8:1],,7>2[8:1],,5,,,,,{4}3h[8:1]/4-7[8:1],
5h[8:1]/4>1[8:1],3h[8:1]/4-8[8:1],{8}4,6,
{16}4/2h[16:3],,,8<5[8:1],,6>3[8:1],,4-1[8:1],,,,,,,,,5/7h[16:3],
,,1>4[8:1],,3<6[8:1],,5-8[8:1],,,,,,,,,1/3h[8:1],
,,1/5-8[8:1],,7>2[8:1],,1-4[8:1],,,,,,,,,8/6h[8:1],
,,8/4-1[8:1],,2<7[8:1],,8-5[8:1],,,,,,,,,8/2h[8:1],
,,8/4-7[8:1],,6-2[8:1],,8-3[8:1],,,,,,,,,1/7h[8:1],
,,1/5-2[8:1],,3-7[8:1],,1-6[8:1],,,,,,,{8}8h[8:1],
{16}2,4,3,5,2,4,3,5,7,5,6,4,7,5,6,4,
1,2,3,2,3,4,8,7,6,7,6,5,{8}4-7[8:7]/3-8[8:7],5h[16:1]/2h[16:1],
{1}3/4,
{8}1,{16}4,3,,4,,3,,2h[8:1],,4,{8}3,4,
8,{16}5,6,,5,,6,,7h[8:1],,5,{8}6,5,
3,{16}3,2,,3,,4<5-8>1-4[16:7],,5,
E
