&title=My First Phone
&artist=cubesato
&first=0
&des=陈
&lv_6=12+
&inote_6=(114){1},
{384}5h[16:9],
{8}4h[16:9],,,,
{16},5?p8[24#48:1]/4?q1[24#48:1],,,,,,,,,,,,,,,
{8}5h[8:2]/4h[8:2],,,,
2h[8:2]/1h[300:1],,8h[300:1],,7h[8:1]/8h[300:1],1h[300:1],2h[8:4]/8h[300:1],,4h[300:1],,1h[8:2],4h[300:1],2h[8:2],,4h[8:2]
,,3h[300:1],2h[300:1],1h[300:1]/3h[300:1],4h[300:1],4h[300:1]/5h[300:1],3h[300:1],4h[300:1]/2h[300:1],5h[300:1],5h[300:1]/6h[300:1],4h[300:1],5h[300:1]/3h[300:1],6h[300:1],
{12}7h[12:1]/8h[12:1],,
{384}8h[12:1],
{12}1h[12:1],,1h[12:1]/2h[12:1],,
{8}3h[8:2]/4h[300:1],,5h[300:1],,6h[8:1]/5h[300:1],4h[300:1],3h[8:4]/5h[300:1],,1h[300:1],,4h[8:2],1h[300:1],3h[8:2],,1h[8:2],,2h[300:1],8h[300:1]/1h[300:1],
{16}7h[300:1],8h[300:1],6h[300:1],5h[300:1],7h[8:2],,
{8}5h[300:1],3h[8:2],,{16}5h[300:1],6h[300:1],,4h[300:1],3h[300:1],,5h[8:3],,4h[24:8],,,,
{24},,,5h[300:1],,4h[300:1],
{8}7h[8:2]/3h[300:1],,8h[300:1],,2h[8:2]/5h[300:1],,1h[300:1],8h[300:1],7h[300:1]/3h[8:2],,4h[300:1],5h[300:1],6h[8:2]/2h[300:1],,5h[300:1],,6h[8:2],8h[300:1],5h[8:2],8h[300:1],4h[8:2],1h[300:1],3h[8:2],1h[300:1],4h[8:2],1h[300:1],5h[8:2],8h[300:1],
{12}7h[12:1],8h[12:1],6h[12:1],2h[12:1],1h[12:1],3h[300:1],
{8}2h[8:2]/5h[300:1],,1h[300:1],,7h[8:2]/4h[300:1],,8h[300:1],1h[300:1],2h[300:1]/6h[8:2],,5h[300:1],4h[300:1],3h[8:2]/7h[300:1],,4h[300:1],,3h[300:1]/4h[300:1],
{384}5h[300:1],
{8}4h[300:1],
{16}6h[300:1],5h[300:1],7h[300:1],8h[300:1],6h[8:2],,8h[300:1],,2h[8:2],,4h[300:1],,
6h[300:1],7h[300:1],,3h[300:1],4h[300:1],,6h[300:1]/5h[300:1],,7<1[16:3]/4h[400:1],,,,,,,,
{8}3h[8:2],,4h[8:2],,5h[8:2],,6h[8:2],,2h[8:2],,4h[8:2],,5h[8:2],,7h[8:2],,1h[8:2],,3h[8:2],,6h[8:2],,8h[8:2],,1h[8:2],,2h[8:2],,7h[8:2],,8h[8:2],,6h[8:2],,4h[8:2],,2h[8:2],,8h[8:2],,1h[8:2],,3h[8:2],,5h[8:2],,7h[8:2],,6h[8:2],,8h[8:2],,5h[8:2],,1h[8:2],,4h[8:2],1h[300:1],
{16}8h[300:1],2h[300:1],,5h[16:1],1h[300:1],7h[300:1],,4h[16:1],8h[300:1],2h[300:1],,3h[300:1]/4h[300:1],1h[300:1]/6h[8:2],,,,
{8}4h[8:2],,2h[8:1],3h[8:1],8h[8:1],2h[8:1],5h[8:2],,3h[8:2],,1h[8:1],2h[8:1],7h[8:1],1h[8:1],
4h[8:2],,
{8}2h[8:2],,8h[8:1],1h[8:1],6h[8:1],8h[8:1],3h[8:1],7h[8:1],5h[8:1],1h[300:1],8h[300:1]/2h[300:1],
{16}7h[300:1]/3h[300:1],7h[300:1]/3h[300:1],7h[300:1]/3h[300:1],,,,
8h[300:1]/3h[8:2],,,,
{8}5h[8:2],,7h[8:1],6h[8:1],1h[8:1],7h[8:1],4h[8:2],,6h[8:2],,8h[8:1],7h[8:1],2h[8:1],8h[8:1],
5h[8:2],,
{8}7h[8:2],,1h[8:1],8h[8:1],3h[8:1],1h[8:1],6h[8:1],2h[8:1],4h[8:1],5h[300:1],
{12}6h[12:1]/1h[12:1],,7h[12:1]/2h[12:1],,4h[12:1]/1h[12:1],,
{8}7h[8:2]/3h[300:1],,8h[300:1],,6h[300:1]/2h[8:3],7h[300:1],8h[300:1],1h[300:1],8h[300:1]/4h[8:2],,3h[300:1],,5h[8:3]/1h[300:1],8h[300:1],7h[300:1],6h[300:1],6h[300:1]/4h[8:2],,2h[300:1],,5h[8:3]/3h[300:1],4h[300:1],6h[300:1],7h[300:1],6h[300:1]/8h[8:1],7h[300:1],8h[8:1]/2h[300:1],1h[300:1],8h[8:1]/4h[300:1],6h[300:1],8h[8:1]/4h[300:1],2h[300:1],8h[300:1]/4h[8:2],,6h[300:1],,5h[8:3]/1h[300:1],2h[300:1],3h[300:1],4h[300:1],5h[8:2]/1h[300:1],,3h[300:1],,8h[300:1]/4h[8:3],7h[300:1],6h[300:1],5h[300:1],8h[300:1]/4h[8:2],,6h[300:1],,5h[8:3]/1h[300:1],2h[300:1],3h[300:1],4h[300:1],
5h[8:2]/4h[16:2],,
{16}4h[300:3],5h[16:2],,,5h[300:1],4h[16:2],,,4h[300:1],5h[8:1],,4h[300:1],7h[300:1]/3h[8:2],,,,
{8}1h[8:2],,5h[8:1],7h[8:1],2h[8:1],4h[8:2],8h[300:1],1h[300:1],2h[300:1]/6h[8:1],1h[300:1],8h[300:1]/4h[8:1],1h[300:1],2h[300:1]/6h[8:1],
{16}3h[300:1],7h[300:1],5h[8:2],,8h[300:1],,1h[8:2],,
{8}4h[300:1],5h[8:2],7h[300:1],1h[8:2],3h[300:1],5h[8:1],7h[8:1],1h[8:1],3h[8:1],5h[8:1],
{16}4h[300:1],4h[300:1],6h[300:1],6h[300:1],
{8},5h[8:2],8h[300:1],6h[8:2],8h[300:1],1h[8:1],7h[8:1],5h[8:1],3h[8:1],2h[8:2],4h[300:1],1h[8:2],4h[300:1],5h[8:1],3h[8:1],1h[8:1],7h[8:1],5h[8:1],6h[8:1],8h[8:1],7h[8:1],3h[8:1],4h[8:1],2h[8:1],1h[8:1],5h[8:1],7h[8:1],1h[8:1],8h[8:1],
{12}2h[12:1],3h[12:1],4h[12:1],5h[12:1],6h[12:1],7h[300:1],
{16}4h[300:1]/8h[8:2],,,,
{8}3h[8:2],,8h[8:1],2h[8:1],6h[8:1],4h[8:1],
7h[300:1],8h[300:1],1h[300:1]/5h[8:1],8h[300:1],7h[300:1]/3h[8:1],8h[300:1],1h[300:1]/5h[8:1],
{16}8h[300:1],4h[300:1],6h[8:2],,8h[300:1],,5h[8:2],,
{8}8h[300:1],4h[8:2],1h[300:1],3h[8:1],1h[300:1],
8h[8:1]/2h[300:1],4h[300:1],7h[300:1]/1h[8:1],5h[300:1],8h[8:1]/3h[300:1],5h[300:1],6h[300:1]/1h[8:1],4h[300:1],7h[8:1]/3h[300:1],2h[300:1],1h[300:1]/5h[8:1],8h[300:1],7h[8:1]/3h[300:1],4h[300:1],5h[300:1]/1h[8:1],6h[300:1],
3h[8:1]/7h[300:1],8h[300:1],5h[8:1]/1h[300:1],2h[300:1],6h[8:1]/2h[300:1],1h[300:1],4h[300:1]/8h[300:1],7h[300:1],
6h[8:1]/2h[300:1],8h[300:1],6h[300:1]/2h[8:1],4h[300:1],6h[8:1]/2h[300:1],8h[8:1],2h[8:1],4h[8:1],6h[16:3],
{16},3h[300:1],5h[300:1],2h[8:1],,7h[300:1],5h[300:1],8h[8:1],,2h[300:1],4h[300:1],1h[8:1],,8h[300:1],7h[8:2]/2h[8:2],,,,
{8},,3h[8:1],4h[8:1],3h[8:2],,4h[8:2],,5h[8:2],,6h[8:1],5h[8:1],6h[8:2],,5h[8:2],,4h[8:2],,3h[8:1],4h[8:1],3h[8:2],,4h[8:2],,5h[8:2],,6h[8:2],,3h[300:1],,7h[8:2]/2h[8:2],,,,4h[8:1],5h[8:1],3h[8:2],,5h[8:2],,4h[8:2],,5h[8:1],4h[8:1],6h[8:2],,4h[8:2],,5h[8:2],,3h[8:1],4h[8:1],2h[8:2],,
{16}4h[16:3],,,5h[16:3],,,6h[8:1],,
{32}5q4[32:5],6V85[24:3],4,7,5,6,4,7,5b,,,,
