&title=Regrets and Dream
&artist=打打だいず
&first=0
&des=ccy
&lv_5=14
&inote_5=(192)
{4},,,
{64},,,,,,,,,,,,,,8x,7x,
{8}6xh[4:3],A2,E3,E4,,,5<7-1>3[4:3],8h[2:1],,,,,,,
{64},,,,,,,,,,,,,,7x,6x,
{8}5xh[4:3],A1,E2,E3,,,4<6-8>2[4:3],7h[2:1],,,,,,,,,
3x/4h[4:1],,5,5h[8:3],,,6,6h[8:3],,,7,,8/7,,1/8,,
2-4[8:1]/1h[4:1],,,,6-8[8:1]/5h[4:1],,,
{64},,,,,,,,2x,3x^2^1^8^7^6^5^4^3b[64:79],4hx[64:46],,,,,,{8},,,,,,,Ch[2:1],,,,,,{16}5,6,7,8,
{8}1b/2b-5[8:1],,6,6-8[8:1],,1-5[8:1],1,1<3[8:5],,,B6,,B3,,8,8-6-4-2[8:5],
,,,Ch[2:1],,,,1<3[8:5],,,B6/B7,,B2/B3,,8,8,
{16}8,,3,4,2,,5,4,7,,2,4,3,4,3,4,1,,6,5,7,,4,5,2,,7,5,6,5,6,5,
8,,8,,1/7,,1/7,,2/6,,2/6,,3/5,,3/5,,4,6,4,6,4,6,4,6,{32}4,3,2,1,8,7,6,5,4/8bx<3[2:3],,,,,,,,
{8}E1,,,E8,,,E7,,,E6,,,E5,,1<4[2:3],,
E2,,,E1,,,E8,,,E7,,,E6,,2<5b[2:3],,
E3,,,E2,,,E1,,,E8,,,E7,,3>6[4:3]*p6[4:3],,,,,,,,,,
5,4h[4:1]/3h[4:1],,,1/2,4/6,7b/8b,3/5,
{16}1/7<4[8:1],,,,7/1,2,3,,3,,3,4,2-5-3-8[8:3],,1/5,,
2/6,,,,B6/B5/E6,,,,7,8,6,1,5,2,4,3,
8<5[8:1],,,,8/2,3,4,,4,,4,5,3-6-4-2[8:3],,2/6,,
3/7,,,,B6/B7/E7,,,,8,7,6,5,4,3,2,1,
8/2>5[8:1],,,,2/8,7,6,,6,,6,5,7-4-6-1[8:3],,8/4,,
7/3,,,,B3/B4/E4,,,,2,1,3,8,4,7,5,6,
1-5[8:1],,,,1/5,6,7-3[8:1],,,,7/4,3,2-6[8:1],,,,2/6,7,8-4[8:1],,,,8/3,2,1w5b[8:1],,2x/8x,,1b,,,,
{8}3hx[1:1],,4,,,B4,6,,6hx[1:1],,5,,,B5,2,,2hx[1:1],,1,,,B1,7,,7hx[4:3],,8,,,{16}B8,C,B4,,7,6,
{8}5x/B1,,4/B8,,3/B7,,2/B6,,1/B5,,8/B4,,7/B3,,6/B2,,5/4,5/4,3/6,3/6,7/2,7/2,1/8,1/8h[8:5],
{16}E2,E3,E4,E5,E6,E7,E8,E1,E2/E3/A2f,,,,
{4}7-1-3-5-7-1[4:7],2-4-6-8-2b[4:7],,,,,,,,Chf[1:1],,,,B2/B3/B6/B7,,{16}A1,E2,E3,A3,A7,E7,E6,A5,
{8}8h[4:1],,7h[1:0],,6h[1:0]`5h[1:0],,3h[1:0]`4h[1:0],2h[8:3]`5h[1:0],
,,1h[1:0],,{16}3h[1:0]`8h[1:0],,,4h[1:0]`7h[1:0],,,5h[1:0]`6h[1:0],,
3>5[32:7]`4h[2:1],,,,,,,,D5,D4,D3,D2,D1,D8,D7,D6,
{8}D5/8-5[8:1],,,,8-3[8:1],,7>4b[2:3],,
E7,,,E8,,,E1,,,E2,,,E3,,6<3[4:3]*q3[4:3],,,,,,,,,,
4,5h[4:1]/6h[4:1],,,8/7,5/3,2b/1b,6/4,
{16}2/8,,3,4,3,,1/5,,3,4,3,,2/8,,3,4,3,,1/5,,3,4,3,4,2-6b[8:1],5,2,5,2,,,,
3/5,,2,1,2,,4/8,,2,1,2,,3/5,,2,1,2,,4/8,,2^3^4^5^6^7^8^1b[4:1],1,2,1,2,,,,Cf,,,,
7/1,,6,5,6,,8/4,,6,5,6,,7/1,,6,5,6,,8/4,,6,5,6,5,7-3b[8:1],4,7,4,7,,,,
6/4,,7,8,7,,5/1,,7,8,7,,6/4,,7,8,7,,5/1^8^7^6^5^4^3^2b[4:1]
,,,,,,Cf,,,,,,,,
1/7,,1,8,1,,1/6,,1,8,1,,2/5,,2,8,2,,2/4,,3,4,3,5,3,6,3,7,3,8,3,,
8/2,,8,1,8,,8/3,,8,1,8,,7/4,,7,1,7,,7/5,,6,5,6,4,6,3,6,2,6,1,6,,
2/8,,1,1,1,,2/6,,3-8b[8:1],4,3,,3/5,,,,7/1,,8,8,8,,7/3,,6-1b[8:1],5,6,,6/4,,,,
2b/8b,,2,3,4/7b,,7,6,5/3b,,3,2,1/5b,,5,6,
7/1b,,1,,1,,1,3,1,4,1,5,1,6,1,7,1,2,3,4,5,6,7,8,1/6,5,4,3,2,1,8,7,
6bx/4b,,3,4,3,5,3,6,3,7,3,8,3>4[1:1],1,3,2,
{4}3xh[4:3],,,,C,,,
{64},,,,,,,,,,,,,,1x,2x,
{8}3xh[4:3],A7,E7,E6,,,4>2-8<6[4:3],1h[2:1],,,,,,,
{64},,,,,,,,,,,,,,2x,3x,
{8}4xh[4:3],A8,E8,E7,,,5>3-1<7[4:3],2h[2:1],,,,,,,,,
6x/5h[4:1],,4,4h[8:3],,,3,3h[8:3],,,2,,1/2,,8/1,,
7-5[8:1]/8h[4:1],,,,3-1[8:1]/4h[4:1],,,
{64},,,,,,,,7x,6x^7^8^1^2^3^4^5^6b[64:79],5hx[64:46],,,,,,{8},,,,,,,Ch[2:1],,,,,,{16}4,3,2,1,
{8}8b/7b-4[8:1],,3,3-1[8:1],,8-4[8:1],8,8>6[8:5],,,B3,,B6,,1,1-3-5-7[8:5],
,,,Ch[2:1],,,,8>6[8:5],,,B3/B2,,B6/B7,,1,1,
{8}8-2[8:1],8,,7-1[8:1],7,,6-8[8:1],6,,5-7[8:1],5,,4-6[8:1],4,,,
1-7b[8:1],1,,2-8b[8:1],2,,3-1b[8:1],3,,4-2b[8:1],4,,5-3b[8:1],5,,,
{16}1,,6,5,7,,4,5,2,,7,5,6,5,6,5,8,,3,4,2,,5,4,7,,2,4,3,4,3,4,
1bw5[2:1],,,,,,,,,,,,,,,,
6,4,6,4,6,4,6,4,{32}6,7,8,1,2,3,4,5,6/2bx,,,,,,,,
{8}2-5[8:1],8-2>4-6b[4:1],2,8,,7x-3[8:1],8,1/7b-1-6-2-5-3b[8:4],,6h[8:3],,,,,D6f/A5/A6/E6/B5/B6,,
7-4[8:1],1-7<5-3b[4:1],7,1,,2x-6[8:1],1,8/2b-8-3-7-4-6b[8:4],,4h[8:3],,,,,D4f/A4/A3/E4/B4/B3,,
8/1h[4:1],7,6q3[4:1],2h[4:1],,,4>5b[2:1],4h[4:1],,,E1f/B1/B8,,E5f/B4/B5,,1/8,,
3/4,2,1b/7b,7,6/5,7,8b/2b,2,{16}4/5,6,7,8,1,2,3,4,{32}5h[4:1]/E2,E3,E4,E5,E6,E7,E8,E1,E2/E3/B2f,,,,,,,,
{8}8b/7b-4[8:1],,7/1,1-5[8:1],,1/5<7-1>3b[4:1],6,7h[4:1],,,4x>1[8:1]/8<5[8:1],,4/8-4[8:1],,8x/6,6h[8:3],
2b-5[8:1],,2,8-4[8:1],,8/4>2-8<6b[4:1],3,2h[4:1],,,5x<8[8:1]/1>4[8:1],,5/1-5[8:1],,1x/3,3h[8:3],
4x,,4,3,5h[4:1]/2,,2,5,6/1h[4:1],,6,1,7h[4:1]/8,,8,7,
5/6,5/6,4/7,4/7,3/8,3/8,1/2,1/2,{16}3,5,3,5,3,5,3,5,2-7b[8:1],6-3[8:1],2,6,2,,,,
{16}1bx/8bx,,,,2,4,3,5,4,6,5,7,1,8,1,8,1,2,3,4,5/7-4[8:1],,8v3[8:1],,7>5b[4:1],,8,,7,,,,
E1f/B1/B8,,,,7,5,6,4,5,3,4,2,8,1,8,1,8,7,6,5,4/2-5[8:1],,1v6[8:1],,2<4b[4:1],,1,,2,,,,
{12}1,1,5,8,8,3,7,7,1,6,6,7,5h[1:0],1,7h[1:0],8,6h[1:0],4,5h[1:0],3,1h[1:0],2<5[32:7],8h[1:0],4xh[24:8],
{16},,,,D5,D4,D3,D2,D1/D8/A8f/E8/E1/B8/4p8b[8:1]*q8b[8:1],,,,4b>7[32:7],,,,
6h[4:1],,,,D7,D6,D5,D4,D3/D2/A2f/E2/E3/B2/6w2b[8:1],,,,6b^5^4^3^2^1^8^7[2:3],,,,
{8}E6,,,B5,,,B4,,,E4,,,C,,3^4^5^6^7^8^1^2b[2:3],,
E4,,,B4,,,B5,,,E6,,,C,,6-4[175:48],,
(175)4V26[2:1],,,,6V41[64:35],,,,(160)1V75[2:1],,,,5V37[31:16],,,,
(150){4}8bh[1:1],,,,2bh[1:1],,,,4bh[1:1],,,,6bh[1:1],,7>2v4[4:1],
